Смертельное оружие 3 / Lethal Weapon 3 (Ричард Доннер) [1992 г., боевик, триллер, комедия, криминал, BDRip-AVC] [DUB]

 
Автор Сообщение

Bathory ®

Пол:

Стаж: 1 год 7 месяцев

Сообщений: 318



Награды: 3 (Подробнее)

Друг (Количество: 1) За внесенный вклад в развитие сайта (Количество: 1) Girls (Количество: 1)
Торрент-статистика

Создавать темы 11-Авг-2017 08:07

[Цитировать]

Смертельное оружие 3 / Lethal Weapon 3- Информация о фильме
Название: Смертельное оружие 3
Оригинальное название: Lethal Weapon 3
Год выхода: 1992
Жанр: боевик, триллер, комедия, криминал
Режиссер: Ричард Доннер
В ролях: Мэл Гибсон, Дэнни Гловер, Джо Пеши, Рене Руссо, Стюарт Уилсон, Стив Кэхэн, Дарлин Лав, Трэйси Вульф, Дэймон Хайнс, Эбони Смит
О фильме:
Третий фильм о неустрашимом полицейском Риггсе. На этот раз Мартин и его напарник Роджер сталкиваются с гангстерами, похищающими оружие со склада полиции. Преступную группу, за которой тянется длинный кровавый след, возглавляет бывший сержант Джек Тревис. Найти улики против «грязного» полицейского напарникам помогает Лорна Коул — решительная женщина-полицейский, которая не останавливается перед лицом опасности и уверенно вступает в схватку с противниками…

Страна: США
Студия: Warner Bros., Silver Pictures, St. Petersburg Clearwater Film Commission
Продолжительность: 01:57:53
Перевод: Дубляж
Файл
Кодек: AVC
Качество: BDRip-AVC |BDRemux 1080p|
Видео: 752x312, 818 kbps, 23,976 fps, 0,145 Bits/(Pixel*Frame)
Звук: AAC, 48 kHz, 2 ch, 64 kbps
Субтитры: русские, английские, английские SDH

MI

Общее
Unique ID : 247226051973369378580853335697134759716 (0xB9FE0172767E56C68B41346F2DB0AF24)
Complete name : E:\Lethal.Weapon.3.1992.BDRip-AVC.MegaPeer.mkv
Format : Matroska
Format version : Version 4 / Version 2
File size : 746 Мбайт
Duration : 1 ч. 57 м.
Overall bit rate : 884 Кбит/сек
Encoded date : UTC 2017-08-11 07:34:57
Writing application : mkvmerge v14.0.0 ('Flow') 64bit
Writing library : libebml v1.3.4 + libmatroska v1.4.5
Видео
ID : 1
Format : AVC
Format/Info : Advanced Video Codec
Format profile : High@L4.1
Format settings, CABAC : Да
Format settings, RefFrames : 12 кадров
Codec ID : V_MPEG4/ISO/AVC
Duration : 1 ч. 57 м.
Bit rate : 818 Кбит/сек
Width : 752 пикселя
Height : 312 пикселей
Display aspect ratio : 2,40:1
Frame rate mode : Постоянный
Frame rate : 23,976 (24000/1001) кадра/сек
Color space : YUV
Chroma subsampling : 4:2:0
Bit depth : 8 бит
Scan type : Прогрессивная
Bits/(Pixel*Frame) : 0.145
Stream size : 690 Мбайт (93%)
Writing library : x264 core 152 r2851 ba24899
Encoding settings : cabac=1 / ref=12 / deblock=1:-3:-3 / analyse=0x3:0x133 / me=umh / subme=11 / psy=1 / psy_rd=1.00:0.12 / mixed_ref=1 / me_range=32 / chroma_me=1 / trellis=2 / 8x8dct=1 / cqm=0 / deadzone=21,11 / fast_pskip=0 / chroma_qp_offset=-3 / threads=10 / lookahead_threads=2 / sliced_threads=0 / nr=0 / decimate=0 / interlaced=0 / bluray_compat=0 / constrained_intra=0 / bframes=14 / b_pyramid=2 / b_adapt=2 / b_bias=0 / direct=3 / weightb=1 / open_gop=0 / weightp=2 / keyint=240 / keyint_min=23 / scenecut=0 / intra_refresh=0 / rc_lookahead=60 / rc=2pass / mbtree=1 / bitrate=818 / ratetol=1.0 / qcomp=0.60 / qpmin=0 / qpmax=51 / qpstep=4 / cplxblur=15.0 / qblur=0.5 / vbv_maxrate=50000 / vbv_bufsize=62500 / nal_hrd=none / filler=0 / ip_ratio=1.40 / aq=2:1.00
Default : Да
Forced : Нет
Аудио
ID : 2
Format : AAC
Format/Info : Advanced Audio Codec
Format profile : HE-AAC / LC
Codec ID : A_AAC
Duration : 1 ч. 57 м.
Bit rate : 64,0 Кбит/сек
Channel(s) : 2 канала
Channel positions : Front: L R
Sampling rate : 48,0 КГц / 24,0 КГц
Frame rate : 23,438 кадра/сек (1024 SPF)
Compression mode : С потерями
Delay relative to video : 31 мс.
Stream size : 54,0 Мбайт (7%)
Language : Russian
Default : Да
Forced : Нет
Текст #1
ID : 3
Format : UTF-8
Codec ID : S_TEXT/UTF8
Codec ID/Info : UTF-8 Plain Text
Duration : 1 ч. 56 м.
Bit rate : 113 бит/сек
Count of elements : 1752
Stream size : 97,1 Кбайт (0%)
Language : Russian
Default : Да
Forced : Нет
Текст #2
ID : 4
Format : UTF-8
Codec ID : S_TEXT/UTF8
Codec ID/Info : UTF-8 Plain Text
Duration : 1 ч. 56 м.
Bit rate : 81 бит/сек
Count of elements : 1772
Stream size : 69,5 Кбайт (0%)
Language : English
Default : Нет
Forced : Нет
Текст #3
ID : 5
Format : UTF-8
Codec ID : S_TEXT/UTF8
Codec ID/Info : UTF-8 Plain Text
Duration : 1 ч. 56 м.
Bit rate : 83 бит/сек
Count of elements : 1972
Stream size : 70,9 Кбайт (0%)
Language : English
Default : Нет
Forced : Нет

Скриншоты

Релиз:
[Профиль] [ЛС]
Показать сообщения:    

Текущее время: Сегодня 19:02

Часовой пояс: GMT



Вы не можете начинать темы
Вы не можете отвечать на сообщения
Вы не можете редактировать свои сообщения
Вы не можете удалять свои сообщения
Вы не можете голосовать в опросах
Вы не можете прикреплять файлы к сообщениям
Вы не можете скачивать файлы