Смертельная красотка / Fatal Beauty (1987) WEB-DL 720p | P2, A

 
Автор Сообщение

Russian Mafia ®

Пол:

Стаж: 1 год 8 месяцев

Сообщений: 4253



Награды: 10 (Подробнее)

Top Releaser 5 (Количество: 1) Mega Seeder 4 (Количество: 1) Top Releaser 3 (Количество: 1)
Торрент-статистика

Создавать темы 14-Окт-2015 08:53

[Цитировать]

Информация о фильме
Название: Смертельная красотка
Оригинальное название: Fatal Beauty
Год выхода: 1987
Жанр: боевик, триллер, драма, комедия, криминал
Режиссер: Том Холланд
В ролях: Вупи Голдберг, Сэм Эллиотт, Рубен Бладес, Харрис Юлин, Джон П. Райан, Дженнифер Уоррен, Брэд Дуриф, Майк Джолли, Чарльз Хэллахан, Дэвид Харрис
О фильме:
Рита — полицейский, сотрудница отдела по борьбе с наркотиками. Мужественная женщина, практически в одиночку, выслеживает крупную банду наркодельцов, распространяющих смертельный наркотик, носящий название «Роковая красотка»…

Страна: США, Япония
Студия: CST Telecommunications, Metro-Goldwyn-Mayer (MGM)
Продолжительность: 01:44:21
Перевод: Профессиональный (двухголосый, закадровый) НТВ+ + Авторский (одноголосый, закадровый) Андрей Гаврилов
Файл
Формат: Matroska
Видео: 1280x692 at 23.976 fps, MPEG-4 AVC ~4000 kbps avg
Аудио#1: Russian: 48 kHz, AC3, 2/0 (L,R) ch, ~192.00 kbps avg |Двухголосый закадровый, НТВ+|
Аудио#2: Russian: 48 kHz, AC3, 2/0 (L,R) ch, ~192.00 kbps avg |Авторский, А.Гаврилов|
Аудио#3: English: 48 kHz, AAC, 2/0 (L,R) ch, ~160.00 kbps avg
Субтитры: English

MI

Общее
Уникальный идентификатор : 205175785712148442621407228653903166640 (0x9A5B6B40BDB7B13B89B447779C163CB0)
Полное имя : Fatal.Beauty.1987.WEB-DL.720p_by_vedigo.mkv
Формат : Matroska
Версия формата : Version 4 / Version 2
Размер файла : 3,46 Гбайт
Продолжительность : 1 ч. 44 м.
Общий поток : 4746 Кбит/сек
Название фильма : Fatal.Beauty.1987.WEB-DL.720p_by_vedigo
Дата кодирования : UTC 2015-10-14 00:42:44
Программа кодирования : mkvmerge v8.4.0 ('A better way to fly') 64bit
Библиотека кодирования : libebml v1.3.1 + libmatroska v1.4.2
DURATION : 01:43:35.241000000
Видео
Идентификатор : 1
Формат : AVC
Формат/Информация : Advanced Video Codec
Профиль формата : High@L3.1
Параметр CABAC формата : Нет
Параметр ReFrames формата : 2 кадра
Идентификатор кодека : V_MPEG4/ISO/AVC
Продолжительность : 1 ч. 44 м.
Ширина : 1280 пикселей
Высота : 692 пикселя
Соотношение сторон : 1,85:1
Режим частоты кадров : Постоянный
Частота кадров : 23,976 кадра/сек
Цветовое пространство : YUV
Субдискретизация насыщенности : 4:2:0
Битовая глубина : 8 бит
Тип развёртки : Прогрессивная
Заголовок : Fatal.Beauty.1987.WEB-DL.720p_by_vedigo
Default : Да
Forced : Нет
Цветовой диапазон : Limited
Основные цвета : BT.709
Характеристики трансфера : BT.709
Коэффициенты матрицы : BT.709
Аудио #1
Идентификатор : 2
Формат : AC-3
Формат/Информация : Audio Coding 3
Расширение режима : CM (complete main)
Параметр Endianness формата : Big
Идентификатор кодека : A_AC3
Продолжительность : 1 ч. 44 м.
Вид битрейта : Постоянный
Битрейт : 192 Кбит/сек
Каналы : 2 канала
Расположение каналов : Front: L R
Частота : 48,0 КГц
Метод сжатия : С потерями
Размер потока : 143 Мбайт (4%)
Заголовок : DVO @ НТВ+
Язык : Russian
Default : Да
Forced : Нет
Аудио #2
Идентификатор : 3
Формат : AC-3
Формат/Информация : Audio Coding 3
Расширение режима : CM (complete main)
Параметр Endianness формата : Big
Идентификатор кодека : A_AC3
Продолжительность : 1 ч. 44 м.
Вид битрейта : Постоянный
Битрейт : 192 Кбит/сек
Каналы : 2 канала
Расположение каналов : Front: L R
Частота : 48,0 КГц
Метод сжатия : С потерями
Размер потока : 143 Мбайт (4%)
Заголовок : AVO @ Андрей Гаврилов
Язык : Russian
Default : Нет
Forced : Нет
Аудио #3
Идентификатор : 4
Формат : AAC
Формат/Информация : Advanced Audio Codec
Профиль формата : LC
Идентификатор кодека : A_AAC
Продолжительность : 1 ч. 44 м.
Каналы : 2 канала
Расположение каналов : Front: L R
Частота : 48,0 КГц
Метод сжатия : С потерями
Заголовок : original
Язык : English
Default : Нет
Forced : Нет
Текст
Идентификатор : 5
Формат : UTF-8
Идентификатор кодека : S_TEXT/UTF8
Идентификатор кодека/Информация : UTF-8 Plain Text
Заголовок : subtitle eng
Язык : English
Default : Нет
Forced : Нет
Меню
00:00:00.000 : en:Chapter 1
00:12:04.000 : en:Chapter 2
00:26:43.000 : en:Chapter 3
00:38:28.000 : en:Chapter 4
00:50:58.000 : en:Chapter 5
01:05:09.000 : en:Chapter 6
01:20:33.000 : en:Chapter 7
01:30:16.000 : en:Chapter 8

Скриншоты


[Профиль] [ЛС]
Кто просматривает тему:

Форум Тема Автор Размер
Фильмы 2014 года 2047 – Угроза смерти / 2047: Sights of Death (2014) HDRip | L1 BOSS 703 MB
Фильмы 2014 года 2047 – Угроза смерти / 2047: Sights of Death (Алессандро Капоне) [2014, фантастика, боевик, триллер] HDRip | L1 BOSS 1.45 GB
Фильмы 2010 года 22 пули: Бессмертный / 22 Bullets: L'immortel (Ришар Берри) [2010 г., Боевик, драма, криминал, HDRip] DUB BOSS 1.45 GB
Фильмы (HD Rips | 720p, 1080p) 31: Праздник смерти / 31 (2016) WEB-DL 1080p | iTunes Russian Mafia 3.4 GB
Фильмы 2016 года 31: Праздник смерти / 31 (2016) WEB-DLRip | iTunes Russian Mafia 1.37 GB
BBC BBC: Horizon. В поисках бессмертия / Horizon. The Immortalist (Tristan Quinn) [2016 г., Документальный, научно-познавательный, HDTVRip-AVC 720p] skorpionN 1.52 GB
BBC BBC: Бессмертный Египет с Джоанн Флетчер (История Египта) / Immortal Egypt with Joann Fletcher (The Story of Egypt) [серии 1-4 из 4] (Ian A. Hunt) [2015 г., Документальный, история, исследования,... skorpionN 7.22 GB
История, биографии, религия и искусство Cовременная проза, мемуары - Пир бессмертных 03. Пучина [Бухмин Аркадий, 2015] Magnat 279 MB
Показать сообщения:    

Текущее время: Сегодня 10:49

Часовой пояс: GMT



Вы не можете начинать темы
Вы не можете отвечать на сообщения
Вы не можете редактировать свои сообщения
Вы не можете удалять свои сообщения
Вы не можете голосовать в опросах
Вы не можете прикреплять файлы к сообщениям
Вы не можете скачивать файлы