Смертельная гонка 4: Вне анархии / Death Race 4: Beyond Anarchy (2018) WEBRip 1080p | GreenРай Studio

 
Автор Сообщение

BOSS ®

Пол:

Стаж: 4 года

Сообщений: 12088

Откуда: ODESSA



Награды: 22 (Подробнее)

Top Seeder 4 (Количество: 1) Top Releaser 5 (Количество: 1) Top Keeper 3 (Количество: 1)
Торрент-статистика

Создавать темы 09-Авг-2018 17:30

[Цитировать]

Информация о фильме
Год выхода: 2018
Наименование: Смертельная гонка 4: Вне анархии
Оригинальное наименование: Death Race 4: Beyond Anarchy
Страна: США, Болгария
Жанр: боевик
Режиссер постановщик: Дон Майкл Пол
В главных ролях: Зэк МакГоун, Фредерик Колер, Кристин Мардзано, Еннис Чун-Ян, Кэсси Клер, Люси Саутхолл, Дэнни Трехо, Дэнни Гловер, Николас Аарон, Камерон Джек
О фильме: Продолжение известной серии фильмов про смертельную гонку. Главный герой знакомится с агентом телеканала в местном баре, что приводит его к участию в гонке. Теперь в битве участвуют уже не заключенные. Гонщиками становятся все отъявленные негодяи, насильники и убийцы. Когда герой отказывается от гонки, его семью берут в заложники , а самого насильно заставляют сесть за руль. Теперь вся пустыня - это поле для адских гонок. Сможет ли главный герой сохранить жизнь себе и своим близким?

Файл
Качество: WEBRip 1080p
Видео данные: MKV, 1920x1080 (16:9), 29.970 fps, 4000 Кбит/с
Аудио данные: AC3, 2 ch, 384 Кбит/с
Перевод: Любительский многоголосый (GreenРай Studio)
Продолжительность: 01:51:43

Медиаинфо

General
Unique ID : 238865052488854872926583275773771505972 (0xB3B3BC58832A14E0A09BE41FF875E134)
Complete name : E:ГРИНРАЙDeath.Race.4.Beyond.Anarchy.2018.P.WEB-DL.1080p.mkv
Format : Matroska
Format version : Version 4 / Version 2
File size : 3.41 GiB
Duration : 1 h 51 min
Overall bit rate mode : Constant
Overall bit rate : 4 369 kb/s
Encoded date : UTC 2018-08-08 12:18:31
Writing application : mkvmerge v8.3.0 ('Over the Horizon') 64bit
Writing library : libebml v1.3.1 + libmatroska v1.4.2
Video
ID : 1
Format : AVC
Format/Info : Advanced Video Codec
Format profile : Main@L4
Format settings : CABAC / 3 Ref Frames
Format settings, CABAC : Yes
Format settings, RefFrames : 3 frames
Codec ID : V_MPEG4/ISO/AVC
Duration : 1 h 51 min
Bit rate mode : Constant
Bit rate : 4 000 kb/s
Width : 1 920 pixels
Height : 1 080 pixels
Display aspect ratio : 16:9
Frame rate mode : Constant
Frame rate : 29.970 (30000/1001) FPS
Standard : NTSC
Color space : YUV
Chroma subsampling : 4:2:0
Bit depth : 8 bits
Scan type : Progressive
Bits/(Pixel*Frame) : 0.064
Stream size : 3.11 GiB (91%)
Language : English
Default : Yes
Forced : No
Color range : Limited
Audio
ID : 2
Format : AC-3
Format/Info : Audio Coding 3
Codec ID : A_AC3
Duration : 1 h 51 min
Bit rate mode : Constant
Bit rate : 384 kb/s
Channel(s) : 2 channels
Channel positions : Front: L R
Sampling rate : 48.0 kHz
Frame rate : 31.250 FPS (1536 SPF)
Bit depth : 16 bits
Compression mode : Lossy
Stream size : 307 MiB (9%)
Service kind : Complete Main
Default : Yes
Forced : No
Внимание, имеется видео и аудио реклама от спонсора показа

Скриншоты

Релиз от:
[Профиль] [ЛС]
Показать сообщения:    

Текущее время: Сегодня 14:39

Часовой пояс: GMT



Вы не можете начинать темы
Вы не можете отвечать на сообщения
Вы не можете редактировать свои сообщения
Вы не можете удалять свои сообщения
Вы не можете голосовать в опросах
Вы не можете прикреплять файлы к сообщениям
Вы не можете скачивать файлы