Смертельная гонка / Death Race (2008) BDRip 720p | Расширенная версия

 
Автор Сообщение

sergej644 ®

Пол:

Стаж: 4 года 11 месяцев

Сообщений: 6041

Откуда: Soviet Union



Награды: Нет

Торрент-статистика

Создавать темы 31-Янв-2015 23:29

[Цитировать]

Смертельная гонка / Death Race
Страна: США, Германия, Великобритания
Год выпуска: 2008
Жанр: фантастика, боевик, триллер
Продолжительность: 01:50:35
Перевод: Дублированный
Режиссер: Пол У. С. Андерсон / Paul W.S. Anderson
Актеры: Джейсон Стэйтем, Джоан Аллен, Иэн МакШейн, Тайриз Гибсон, Натали Мартинес, Макс Райан, Джейсон Кларк, Фредерик Колер, Джейкоб Варгас, Джастин Мэдер
Описание фильма: Трехкратный чемпион-гонщик Дженсен Эймс посажен в тюрьму за убийство, которого не совершал. Вместо того, чтобы выпустить его на свободу, тюремщики заставляют его вместе с самыми отъявленными преступниками участвовать в кровавом состязании. Оказавшись за рулем чудовищного автомобиля, оборудованного автоматами, огнеметами и гранатометами, этот отчаянный человек разрушит все на своем пути, чтобы выиграть самую зрелищную гонку на выживание на Земле.

Файл
Качество видео: BDRip 720p Исходник: Blu-ray
Формат: MKV Видео кодек: MPEG-4 AVC Аудио кодек: AC3
Видео: AVC, 1280x544 (2.35:1) at 23.976 fps, AVC at 4819 kbps avg, 0.289 bit/pixel
Аудио: Russian: 48 kHz; AC3 5.1; 448.00 kbps avg
Субтитры: Русские, английские

Скриншоты

MediaInfo

Death Race.2008.720p.BluRay.x264-LEONARDO_[scarabey.org].mkv
Format : Matroska
Format version : Version 2
File size : 4.15 GiB
Duration : 1h 50mn
Overall bit rate : 5 374 Kbps
Movie name : Release by Leonardo for Scarabey.org
Encoded date : UTC 2014-08-12 12:07:23
Writing application : mkvmerge v5.0.1 ('Es ist Sommer') built on Oct 23 2011 00:46:40
Writing library : libebml v1.2.2 + libmatroska v1.3.0
Attachment : Yes
Video
ID : 1
Format : AVC
Format/Info : Advanced Video Codec
Format profile : High@L4.1
Format settings, CABAC : Yes
Format settings, ReFrames : 8 frames
Codec ID : V_MPEG4/ISO/AVC
Duration : 1h 50mn
Bit rate : 4 819 Kbps
Width : 1 280 pixels
Height : 544 pixels
Display aspect ratio : 2.35:1
Frame rate : 23.976 fps
Color space : YUV
Chroma subsampling : 4:2:0
Bit depth : 8 bits
Scan type : Progressive
Bits/(Pixel*Frame) : 0.289
Stream size : 3.72 GiB (90%)
Writing library : x264 core 125 r2208 d9d2288
Encoding settings : cabac=1 / ref=8 / deblock=1:-3:-3 / analyse=0x3:0x133 / me=umh / subme=11 / psy=1 / psy_rd=1.00:0.00 / mixed_ref=1 / me_range=32 / chroma_me=1 / trellis=2 / 8x8dct=1 / cqm=0 / deadzone=21,11 / fast_pskip=0 / chroma_qp_offset=-2 / threads=12 / lookahead_threads=2 / sliced_threads=0 / nr=0 / decimate=1 / interlaced=0 / bluray_compat=0 / constrained_intra=0 / bframes=8 / b_pyramid=2 / b_adapt=2 / b_bias=0 / direct=1 / weightb=1 / open_gop=0 / weightp=2 / keyint=250 / keyint_min=23 / scenecut=40 / intra_refresh=0 / rc=crf / mbtree=0 / crf=19.0 / qcomp=0.60 / qpmin=0 / qpmax=69 / qpstep=4 / ip_ratio=1.10 / pb_ratio=1.10 / aq=1:1.00
Language : English
Default : Yes
Forced : No
Audio
ID : 2
Format : AC-3
Format/Info : Audio Coding 3
Mode extension : CM (complete main)
Codec ID : A_AC3
Duration : 1h 50mn
Bit rate mode : Constant
Bit rate : 448 Kbps
Channel(s) : 6 channels
Channel positions : Front: L C R, Side: L R, LFE
Sampling rate : 48.0 KHz
Bit depth : 16 bits
Compression mode : Lossy
Stream size : 354 MiB (8%)
Language : Russian
Default : Yes
Forced : Yes
Text #1
ID : 3
Format : UTF-8
Codec ID : S_TEXT/UTF8
Codec ID/Info : UTF-8 Plain Text
Language : Russian
Default : Yes
Forced : No
Text #2
ID : 4
Format : UTF-8
Codec ID : S_TEXT/UTF8
Codec ID/Info : UTF-8 Plain Text
Language : Russian
Default : No
Forced : No
Text #3
ID : 5
Format : UTF-8
Codec ID : S_TEXT/UTF8
Codec ID/Info : UTF-8 Plain Text
Language : English
Default : No
Forced : No
[Профиль] [ЛС]
Кто просматривает тему:

Форум Тема Автор Размер
Фильмы 2014 года 2047 – Угроза смерти / 2047: Sights of Death (2014) HDRip | L1 BOSS 703 MB
Фильмы 2014 года 2047 – Угроза смерти / 2047: Sights of Death (Алессандро Капоне) [2014, фантастика, боевик, триллер] HDRip | L1 BOSS 1.45 GB
Фильмы 2010 года 22 пули: Бессмертный / 22 Bullets: L'immortel (Ришар Берри) [2010 г., Боевик, драма, криминал, HDRip] DUB BOSS 1.45 GB
Фильмы (HD Rips | 720p, 1080p) 31: Праздник смерти / 31 (2016) WEB-DL 1080p | iTunes Russian Mafia 3.4 GB
Фильмы 2016 года 31: Праздник смерти / 31 (2016) WEB-DLRip | iTunes Russian Mafia 1.37 GB
BBC BBC: Horizon. В поисках бессмертия / Horizon. The Immortalist (Tristan Quinn) [2016 г., Документальный, научно-познавательный, HDTVRip-AVC 720p] skorpionN 1.52 GB
BBC BBC: Бессмертный Египет с Джоанн Флетчер (История Египта) / Immortal Egypt with Joann Fletcher (The Story of Egypt) [серии 1-4 из 4] (Ian A. Hunt) [2015 г., Документальный, история, исследования,... skorpionN 7.22 GB
История, биографии, религия и искусство Cовременная проза, мемуары - Пир бессмертных 03. Пучина [Бухмин Аркадий, 2015] Magnat 279 MB
Показать сообщения:    

Текущее время: Сегодня 21:01

Часовой пояс: GMT



Вы не можете начинать темы
Вы не можете отвечать на сообщения
Вы не можете редактировать свои сообщения
Вы не можете удалять свои сообщения
Вы не можете голосовать в опросах
Вы не можете прикреплять файлы к сообщениям
Вы не можете скачивать файлы