Слэшер / Slasher [S01] (2016) WEB-DL 720р | Sunshine Studio

 
Автор Сообщение

достали все ®

Пол:

Стаж: 1 год 8 месяцев

Сообщений: 6545



Награды: 12 (Подробнее)

Top Releaser 2 (Количество: 1) Mega Seeder 2 (Количество: 1) Top Releaser 4 (Количество: 1)
Торрент-статистика

Создавать темы 19-Апр-2016 06:18

[Цитировать]

Название: Слешер
Оригинальное название: Slasher
Год выхода: 2016
Жанр: ужасы, триллер, драма
Режиссер: Крэйг Дэвид Уоллес
В ролях:
Кэти МакГрат, Брэндон Джей МакЛарен, Стив Байерс, Джессика Сайпос, Дэвид Патрик Флемминг, Шон Ахмед, Ашанти Бромфилд и др.
О сериале:
Сара Беннетт, молодая женщина, которая возвращается в небольшой город, где родилась, и обнаруживает себя в центре ужасающей серии убийств, основанных на широко известном убийстве её родителей. Вскоре все, кто окружает Сару, становятся подозреваемыми или жертвами, по мере того, как убийств становится всё больше и раскрываются давно похороненные секреты. Сара начинает допрашивать всех и каждого вокруг себя, включая своего мужа Дилана.
Страна: США, Великобритания, Канада
Производство: Chiller Films, Shaftesbury, Super Channel
Продолжительность: ~ 00:50:00
Перевод: Любительский (двухголосый закадровый) Sunshine Studio
Субтитры: Отсутствуют

Файл
Формат: MKV
Качество: WEB-DL 720р
Видео: MPEG-4 AVC, 2800 Кбит/с, 1280x712
Аудио: 48 kHz, AC3 Dolby Digital, 2/0 (L,R) ch, ~192 kbps

Присутствуют рекламные вставки.

MediaInfo

Формат : Matroska
Версия формата : Version 1
Размер файла : 1,14 Гбайт
Продолжительность : 43 м.
Общий поток : 3760 Кбит/сек
Дата кодирования : UTC 2016-03-26 19:55:29
Программа кодирования : mkvmerge v2.4.0 ('Fumbling Towards Ecstasy') built on Oct 11 2008 20:13:15
Библиотека кодирования : libebml v0.7.7 + libmatroska v0.8.1
Видео
Идентификатор : 1
Формат : AVC
Формат/Информация : Advanced Video Codec
Профиль формата : High@L3
Параметр CABAC формата : Нет
Параметр ReFrames формата : 1 кадр
Идентификатор кодека : V_MPEG4/ISO/AVC
Продолжительность : 43 м.
Битрейт : 3500 Кбит/сек
Ширина : 1280 пикселей
Высота : 720 пикселей
Соотношение сторон : 16:9
Режим частоты кадров : Постоянный
Частота кадров : 25,000 кадров/сек
Цветовое пространство : YUV
Субдискретизация насыщенности : 4:2:0
Битовая глубина : 8 бит
Тип развёртки : Прогрессивная
Бит/(Пиксели*Кадры) : 0.152
Размер потока : 1,06 Гбайт (93%)
Библиотека кодирования : x264 core 80 r1378+57 6f6b50a
Настройки программы : cabac=0 / ref=1 / deblock=1:0:0 / analyse=0x3:0x113 / me=hex / subme=7 / psy=1 / psy_rd=1.0:0.0 / mixed_ref=0 / me_range=16 / chroma_me=1 / trellis=0 / 8x8dct=1 / cqm=0 / deadzone=21,11 / fast_pskip=1 / chroma_qp_offset=-2 / threads=6 / sliced_threads=0 / nr=0 / decimate=1 / mbaff=0 / constrained_intra=0 / bframes=0 / wpredp=2 / keyint=250 / keyint_min=25 / scenecut=40 / rc_lookahead=40 / rc=abr / mbtree=1 / bitrate=3500 / ratetol=1.0 / qcomp=0.60 / qpmin=10 / qpmax=51 / qpstep=4 / ip_ratio=1.40 / aq=1:1.00
Default : Да
Forced : Нет
Аудио
Идентификатор : 2
Формат : AC-3
Формат/Информация : Audio Coding 3
Расширение режима : CM (complete main)
Параметр Endianness формата : Big
Идентификатор кодека : A_AC3
Продолжительность : 43 м.
Вид битрейта : Постоянный
Битрейт : 192 Кбит/сек
Каналы : 2 канала
Расположение каналов : Front: L R
Частота : 48,0 КГц
Частота кадров : 31,250 кадров/сек (1536 spf)
Метод сжатия : С потерями
Размер потока : 59,6 Мбайт (5%)
Default : Да
Forced : Нет

Скриншоты

[Профиль] [ЛС]
Показать сообщения:    

Текущее время: Сегодня 16:37

Часовой пояс: GMT



Вы не можете начинать темы
Вы не можете отвечать на сообщения
Вы не можете редактировать свои сообщения
Вы не можете удалять свои сообщения
Вы не можете голосовать в опросах
Вы не можете прикреплять файлы к сообщениям
Вы не можете скачивать файлы