Слэндермэн / Стройный человек, Слендермен / Slender Man (2018) TS-AVC | L2

 
Автор Сообщение

DOMINION ®

Пол:

Стаж: 1 месяц 25 дней

Сообщений: 437



Награды: 2 (Подробнее)

Друг (Количество: 1) За внесенный вклад в развитие сайта (Количество: 1)
Торрент-статистика

Создавать темы 31-Окт-2018 22:03

[Цитировать]

Информация о фильме
Название: Слэндермэн / Стройный человек, Слендермен
Оригинальное название: Slender Man
Год выхода: 2018
Жанр: Ужасы, триллер, детектив
Режиссер: Сильвен Уайт
В ролях: Джои Кинг, Джулия Голден Теллес, Жасмин Сабино, Анналиса Бассо, Алекс Фицалан, Тейлор Ричардсон, Хавьер Ботет, Джессика Бланк, Майкл Рейли Бурк, Кевин Чэпмен и другие
О фильме:
Слендермен - это худощавая фигура в похоронном костюме, без лица, без красок и без ясных намерений. Он становится кошмаром множества детей и подростков, которые пытаются укрыться от его преследования, пока однажды не исчезают без следа.

Страна: США, Mythology Entertainment, Madhouse Entertainment
Продолжительность: 01:26:32
Перевод: Любительский (двухголосый закадровый) | HiWay Grope
Файл
Кодек: MPEG-4 AVC/x.264
Качество: TS-AVC
Видео: 720x280, 29.970 fps, ~1 497 kbps, 0.248 bit/pixel
Звук:
Аудио rus: AC3, 48 kHz, 2 ch, 192 Kbps
Субтитры: отсутствуют
Реклама: присутствует

MediaInfo:

General
Unique ID : 57038231948715941922229957243527501718 (0x2AE929F498A886B81B9495E8C1441796)
Complete name : D:Slenderman 2018.TS-AVC.HiWayGropeSlenderman 2018.TS-AVC.HiWayGrope.mkv
Format : Matroska
Format version : Version 4 / Version 2
File size : 1.02 GiB
Duration : 1 h 26 min
Overall bit rate : 1 691 kb/s
Encoded date : UTC 2018-10-08 06:10:43
Writing application : mkvmerge v27.0.0 ('Metropolis') 64-bit
Writing library : libebml v1.3.6 + libmatroska v1.4.9
Video
ID : 1
Format : AVC
Format/Info : Advanced Video Codec
Format profile : Main@L3.1
Format settings : CABAC / 4 Ref Frames
Format settings, CABAC : Yes
Format settings, RefFrames : 4 frames
Codec ID : V_MPEG4/ISO/AVC
Duration : 1 h 26 min
Bit rate : 1 497 kb/s
Width : 720 pixels
Height : 280 pixels
Display aspect ratio : 2.571
Frame rate mode : Constant
Frame rate : 29.970 (30000/1001) FPS
Standard : NTSC
Color space : YUV
Chroma subsampling : 4:2:0
Bit depth : 8 bits
Scan type : Progressive
Bits/(Pixel*Frame) : 0.248
Stream size : 926 MiB (89%)
Language : English
Default : Yes
Forced : No
Color range : Limited
Color primaries : BT.601 NTSC
Transfer characteristics : BT.601
Matrix coefficients : BT.601
Audio
ID : 2
Format : AC-3
Format/Info : Audio Coding 3
Codec ID : A_AC3
Duration : 1 h 26 min
Bit rate mode : Constant
Bit rate : 192 kb/s
Channel(s) : 2 channels
Channel positions : Front: L R
Sampling rate : 48.0 kHz
Frame rate : 31.250 FPS (1536 SPF)
Bit depth : 16 bits
Compression mode : Lossy
Stream size : 119 MiB (11%)
Service kind : Complete Main
Default : Yes
Forced : No

Скриншоты

[Профиль] [ЛС]
Кто просматривает тему:

Показать сообщения:    

Текущее время: Сегодня 04:49

Часовой пояс: GMT



Вы не можете начинать темы
Вы не можете отвечать на сообщения
Вы не можете редактировать свои сообщения
Вы не можете удалять свои сообщения
Вы не можете голосовать в опросах
Вы не можете прикреплять файлы к сообщениям
Вы не можете скачивать файлы