Слушатель (2004) DVDRip-AVC от ExKinoRay

 
Автор Сообщение

sergej644 ®

Пол:

Стаж: 4 года 11 месяцев

Сообщений: 6041

Откуда: Soviet Union



Награды: Нет

Торрент-статистика

Создавать темы 04-Янв-2016 18:25

[Цитировать]

Информация о фильме
Название: Слушатель
Год выхода: 2004
Жанр: Комедия
Режиссер: Владимир Зайкин
В ролях: Никита Высоцкий, Дмитрий Дюжев, Михаил Ефремов, Наталья Коляканова, Любовь Толкалина, Александр Баширов, Александр Карпиловский, Леонид Громов, Вадим Колганов, Евгений Стеблов, Иван Агапов, Глеб Бауэр, Николай Малаев, Александра Флоринская, Геннадий Храпунков, Ёла Санько, Александр Тютрюмов, Юрий Шерстнёв, Дмитрий Павленко
О фильме:
Преуспевающий бизнесмен Сергей Петров теряет семью, оказывается на улице без копейки денег после того как его "кинули" партнёры по бизнесу. По совету своего старого знакомого Кулёмы он устраивается работать "слушателем". В наше время трудно найти человека, который мог бы просто внимательно выслушать собеседника, особенно если тот начинает жаловаться на жизнь и вымещать на слушателе отрицательные эмоции накопившиеся за день. В семье Федуловых, "слушателю" не просто высказывают то, о чём не рискуют говорить с родственниками, но и занимаются рукоприкладством. Сергей заводит специальную тетрадку, где аккуратно фиксирует каждое бранное слово и синяк по соответствующему тарифу.
Страна: Россия
Продолжительность: 01:31:43
Перевод: не требуется
Файл
Кодек: x264
Качество: DVDRip-AVC
Видео: MPEG-4 AVC, 2002 Кбит/с, 694x400@750x400
Звук: AC3, 6 ch, 448 Кбит/с

Медиа-Инфо

Общее
Уникальный идентификатор : 227274872744726003109510818731879363000 (0xAAFB8C5D8EEDDE949CDB5B74D9BCF1B8)
Полное имя : D:Слушатель_2004-DVDRip-AVC.mkv
Формат : Matroska
Версия формата : Version 2
Размер файла : 1,57 Гбайт
Продолжительность : 1 ч. 31 м.
Общий поток : 2452 Кбит/сек
Дата кодирования : UTC 2016-01-03 22:23:02
Программа кодирования : mkvmerge v5.8.0 ('No Sleep / Pillow') built on Sep 2 2012 15:37:04
Библиотека кодирования : libebml v1.2.3 + libmatroska v1.3.0
Видео
Идентификатор : 1
Формат : AVC
Формат/Информация : Advanced Video Codec
Профиль формата : High@L4.1
Параметр CABAC формата : Да
Параметр ReFrames формата : 15 кадров
Идентификатор кодека : V_MPEG4/ISO/AVC
Продолжительность : 1 ч. 31 м.
Битрейт : 2002 Кбит/сек
Ширина : 694 пикселя
Высота : 400 пикселей
Соотношение сторон : 1,85:1
Режим частоты кадров : Постоянный
Частота кадров : 25,000 кадров/сек
Цветовое пространство : YUV
Субдискретизация насыщенности : 4:2:0
Битовая глубина : 8 бит
Тип развёртки : Прогрессивная
Бит/(Пиксели*Кадры) : 0.288
Размер потока : 1,25 Гбайт (80%)
Библиотека кодирования : x264 core 148 r2638 7599210
Настройки программы : cabac=1 / ref=15 / deblock=1:-2:-2 / analyse=0x3:0x133 / me=umh / subme=10 / psy=1 / psy_rd=1.05:0.13 / mixed_ref=1 / me_range=32 / chroma_me=1 / trellis=2 / 8x8dct=1 / cqm=0 / deadzone=21,11 / fast_pskip=0 / chroma_qp_offset=-3 / threads=12 / lookahead_threads=2 / sliced_threads=0 / nr=0 / decimate=0 / interlaced=0 / bluray_compat=0 / constrained_intra=0 / bframes=7 / b_pyramid=2 / b_adapt=2 / b_bias=0 / direct=3 / weightb=1 / open_gop=0 / weightp=2 / keyint=250 / keyint_min=25 / scenecut=40 / intra_refresh=0 / rc=2pass / mbtree=0 / bitrate=2002 / ratetol=1.0 / qcomp=0.63 / qpmin=0 / qpmax=39 / qpstep=4 / cplxblur=20.0 / qblur=0.5 / ip_ratio=1.40 / pb_ratio=1.30 / aq=1:1.00
Язык : English
Default : Да
Forced : Нет
Цветовой диапазон : Limited
Основные цвета : BT.601 PAL
Характеристики трансфера : BT.470 System B, BT.470 System G
Коэффициенты матрицы : BT.601
Аудио
Идентификатор : 2
Формат : AC-3
Формат/Информация : Audio Coding 3
Расширение режима : CM (complete main)
Параметр Endianness формата : Big
Идентификатор кодека : A_AC3
Продолжительность : 1 ч. 31 м.
Вид битрейта : Постоянный
Битрейт : 448 Кбит/сек
Каналы : 6 каналов
Расположение каналов : Front: L C R, Side: L R, LFE
Частота : 48,0 КГц
Метод сжатия : С потерями
Размер потока : 294 Мбайт (18%)
Язык : Russian
Default : Да
Forced : Нет
Релиз от:
Автор релиза:
[Профиль] [ЛС]
Показать сообщения:    

Текущее время: Сегодня 06:08

Часовой пояс: GMT



Вы не можете начинать темы
Вы не можете отвечать на сообщения
Вы не можете редактировать свои сообщения
Вы не можете удалять свои сообщения
Вы не можете голосовать в опросах
Вы не можете прикреплять файлы к сообщениям
Вы не можете скачивать файлы