Слушается дело о... (Юрий Бутырин) [1976, СССР, Союзмультфильм, Мультфильм, DVB]

 
Автор Сообщение

TorrentFilm ®

Пол:

Стаж: 1 год 11 месяцев

Сообщений: 7741



Награды: Нет

Торрент-статистика

Создавать темы 16-Дек-2015 00:12

[Цитировать]

Слушается дело о...
Страна: СССР, Союзмультфильм
Жанр: Мультфильм
Продолжительность: 00:09:34
Год выпуска: 1976
Перевод: Не требуется
Русские субтитры: нет
Режиссёр: Юрий Бутырин
Роли озвучивали: Вера Васильева, Игорь Дивов, Олег Анофриев
Описание: Сатирический фильм про алкоголиков и алкоголизм.

Я на :

Качество: DVB
Формат: MPEG-TS
Видео: MPEG Video, 3487 kbps, 704 x 576 (1.333), 25 fps
Аудио: MPEG Audio, 160 kbps, 2 ch, 48 kHz
Субтитры: Отсутствуют

Подробные технические данные

ОбщееИдентификатор : 1 (0x1)Полное имя : D:\00-Слушается дело о\Слушается дело о ....tsФормат : MPEG-TSРазмер файла : 263 МбайтПродолжительность : 9 м. 34 с.Режим общего битрейта : ПеременныйОбщий поток : 3838 Кбит/сек
ВидеоИдентификатор : 1310 (0x51E)Идентификатор меню : 310 (0x136)Формат : MPEG VideoВерсия формата : Version 2Профиль формата : Main@MainПараметр BVOP формата : ДаПараметр матрицы формата : ВыборочнаяПараметр GOP формата : VariableСтруктура изображения : FrameИдентификатор кодека : 2Продолжительность : 9 м. 34 с.Вид битрейта : ПеременныйБитрейт : 3487 Кбит/секМаксимальный битрейт : 15,0 Мбит/секШирина : 704 пикселяВысота : 576 пикселейСоотношение сторон : 4:3Частота кадров : 25,000 кадров/секСтандарт вещания : PALЦветовое пространство : YUVСубдискретизация насыщенности : 4:2:0Битовая глубина : 8 битТип развёртки : ЧересстрочнаяПорядок развёртки : Верхнее поле первоеМетод сжатия : С потерямиБит/(Пиксели*Кадры) : 0.344Временной код первого кадра : 00:00:00:00Оригинал временного кода : Group of pictures headerGOP, открыто/закрыто : ОткрытоGOP, открыто/закрыто на первом кадре : ЗакрытоРазмер потока : 239 Мбайт (91%)
АудиоИдентификатор : 2310 (0x906)Идентификатор меню : 310 (0x136)Формат : MPEG AudioВерсия формата : Version 1Профиль формата : Layer 2Идентификатор кодека : 3Продолжительность : 9 м. 34 с.Вид битрейта : ПостоянныйБитрейт : 160 Кбит/секКаналы : 2 каналаЧастота : 48,0 КГцМетод сжатия : С потерямиЗадержка видео : 11 мс.Размер потока : 11,0 Мбайт (4%)Язык : Russian

Скриншоты

[Профиль] [ЛС]
Показать сообщения:    

Текущее время: Сегодня 05:01

Часовой пояс: GMT



Вы не можете начинать темы
Вы не можете отвечать на сообщения
Вы не можете редактировать свои сообщения
Вы не можете удалять свои сообщения
Вы не можете голосовать в опросах
Вы не можете прикреплять файлы к сообщениям
Вы не можете скачивать файлы