Случайный шпион / The Accidental Spy (Dak miu mai shing) (2000) BDRip 1080p от HDReactor | P, A

 
Автор Сообщение

Russian Mafia ®

Пол:

Стаж: 1 год 8 месяцев

Сообщений: 4256



Награды: 10 (Подробнее)

Top Releaser 2 (Количество: 1) За внесенный вклад в развитие сайта (Количество: 1) Top Releaser 5 (Количество: 1)
Торрент-статистика

Создавать темы 03-Авг-2016 09:45

[Цитировать]

Информация о фильме
Название: Случайный шпион
Оригинальное название: The Accidental Spy (Dak miu mai shing)
Год выпуска: 2000
Жанр: Боевик, триллер, комедия
Выпущено: Гонконг, Golden Harvest Company Ltd., Panfilm
Режиссер: Тедди Чан
В ролях: Джеки Чан, Эрик Цан, Вивиан Су, Мин Ким, Син-Куо У, Альфред Чун, Энтони Рене Джонс, Глори Саймон, Брэдли Джеймс Аллан, Тат-Минг Чунг
О фильме: Сирота Бак всегда мечтал стать спецагентом. С детства изучал боевые искусства. Однажды помог полиции в задержании грабителей банка. Бак постоянно сталкивается с подозрительными фактами о прошлой жизни своего отца, который по словам частного детектива Лиу является миллионером. Детектив убедил Бака отправиться на встречу с «отцом» в Турцию, а затем Корею. Бак и не догадывается, что его отец фактически оказывается северо-корейским шпионом. Таким образом сирота становится адресатом для посещений его рядом таинственных людей. Он даже не предполагал, что окажется запутанным в деле с воровством вируса, вызывающего рак легких, из американского правительственного научного департамента. И теперь ему придется использовать все свое умение и храбрость, чтобы остановить вирус от попадания не в те руки…

Продолжительность: 01:47:35
Перевод: Профессиональный многоголосый, авторский
Субтитры: Английские
Файл
Качество: BDRip (1080p)
Видео: MPEG-4 AVC, 9319 Кбит/с, 1920x818
Аудио #1: Русский (АС3, 2 ch, 192 Кбит/с) - ПМ
Аудио #2: Русский (АС3, 6 ch, 384 Кбит/с) - Авторский (Гаврилов)
Аудио #3: Китайский (АС3, 6 ch, 448 Кбит/с)

МедиаИнфо

Формат : Matroska
Версия формата : Version 2
Размер файла : 7,77 Гбайт
Продолжительность : 1 ч. 47 м.
Общий поток : 10,3 Мбит/сек
Название фильма : ~V ad~
Дата кодирования : UTC 2014-12-12 08:13:15
Программа кодирования : mkvmerge v6.1.0 ('Old Devil') built on Mar 4 2013 09:10:42
Библиотека кодирования : libebml v1.3.0 + libmatroska v1.4.0
Обложка : Yes
Attachments : cover.jpg / spy.jpg
Видео
Идентификатор : 1
Формат : AVC
Формат/Информация : Advanced Video Codec
Профиль формата : High@L4.1
Параметр CABAC формата : Да
Параметр ReFrames формата : 5 кадров
Идентификатор кодека : V_MPEG4/ISO/AVC
Продолжительность : 1 ч. 47 м.
Битрейт : 9319 Кбит/сек
Ширина : 1920 пикселей
Высота : 818 пикселей
Соотношение сторон : 2,35:1
Режим частоты кадров : Постоянный
Частота кадров : 24,000 кадра/сек
Цветовое пространство : YUV
Субдискретизация насыщенности : 4:2:0
Битовая глубина : 8 бит
Тип развёртки : Прогрессивная
Бит/(Пиксели*Кадры) : 0.247
Размер потока : 6,85 Гбайт (88%)
Заголовок : ~V~
Библиотека кодирования : x264 core 142 r0+4281 a3bf0d5 Test [8-bit@all X86_64]
Настройки программы : cabac=1 / ref=5 / deblock=1:-2:-2 / analyse=0x3:0x133 / me=umh / subme=10 / psy=1 / fade_compensate=0.00 / psy_rd=1.00:0.10 / mixed_ref=1 / me_range=32 / chroma_me=1 / trellis=2 / 8x8dct=1 / cqm=0 / deadzone=21,11 / fast_pskip=0 / chroma_qp_offset=-4 / threads=12 / lookahead_threads=1 / sliced_threads=0 / nr=0 / decimate=0 / interlaced=0 / bluray_compat=0 / constrained_intra=0 / fgo=0 / bframes=7 / b_pyramid=2 / b_adapt=2 / b_bias=0 / direct=3 / weightb=1 / open_gop=0 / weightp=2 / keyint=240 / keyint_min=23 / scenecut=40 / intra_refresh=0 / rc=2pass / mbtree=0 / bitrate=9319 / ratetol=1.0 / qcomp=0.60 / qpmin=0:0:0 / qpmax=69:69:69 / qpstep=4 / cplxblur=20.0 / qblur=0.5 / ip_ratio=1.40 / pb_ratio=1.30 / aq=4:1.00 / aq-sensitivity=11.00 / aq-factor=1.00:1.00:1.00 / aq2=1:0.80 / aq2-sensitivity=10.00 / aq2-factor=1.00:1.00:1.00 / aq3=1:[0.70:0.70]:[0.70:0.70]:[0.70:0.70]:[0.70:0.70] / aq3-sensitivity=9.00 / aq3-factor=[1.00:1.00]:[1.00:1.00]:[1.00:1.00] / aq3-boundary=192:64:24
Язык : English
Default : Да
Forced : Нет
Аудио #1
Идентификатор : 2
Формат : AC-3
Формат/Информация : Audio Coding 3
Расширение режима : CM (complete main)
Параметр Endianness формата : Big
Идентификатор кодека : A_AC3
Продолжительность : 1 ч. 47 м.
Вид битрейта : Постоянный
Битрейт : 384 Кбит/сек
Каналы : 6 каналов
Расположение каналов : Front: L C R, Side: L R, LFE
Частота : 48,0 КГц
Частота кадров : 31,250 кадров/сек (1536 spf)
Метод сжатия : С потерями
Размер потока : 296 Мбайт (4%)
Заголовок : АП [Гаврилов]
Язык : Russian
Default : Да
Forced : Да
Аудио #2
Идентификатор : 3
Формат : AC-3
Формат/Информация : Audio Coding 3
Расширение режима : CM (complete main)
Параметр Endianness формата : Big
Идентификатор кодека : A_AC3
Продолжительность : 1 ч. 47 м.
Вид битрейта : Постоянный
Битрейт : 192 Кбит/сек
Каналы : 2 канала
Расположение каналов : Front: L R
Частота : 48,0 КГц
Частота кадров : 31,250 кадров/сек (1536 spf)
Метод сжатия : С потерями
Размер потока : 148 Мбайт (2%)
Заголовок : ПМ
Язык : Russian
Default : Нет
Forced : Нет
Аудио #3
Идентификатор : 4
Формат : AC-3
Формат/Информация : Audio Coding 3
Расширение режима : CM (complete main)
Параметр Endianness формата : Big
Идентификатор кодека : A_AC3
Продолжительность : 1 ч. 47 м.
Вид битрейта : Постоянный
Битрейт : 448 Кбит/сек
Каналы : 6 каналов
Расположение каналов : Front: L C R, Side: L R, LFE
Частота : 48,0 КГц
Частота кадров : 31,250 кадров/сек (1536 spf)
Метод сжатия : С потерями
Размер потока : 345 Мбайт (4%)
Язык : Chinese
Default : Нет
Forced : Нет
Текст
Идентификатор : 5
Формат : UTF-8
Идентификатор кодека : S_TEXT/UTF8
Идентификатор кодека/Информация : UTF-8 Plain Text
Язык : English
Default : Нет
Forced : Нет

Скриншоты


Сэмпл
Релиз от:
[Профиль] [ЛС]
Кто просматривает тему:

Форум Тема Автор Размер
Зарубежные В случае убийства набирайте «М» в 3Д / Dial M for Murder 3D (Альфред Хичкок / Alfred Hitchcock) [1954, Криминал, триллер, BDremux, 1080p] BD3D TorrentFilm 35.06 GB
Зарубежные В случае убийства набирайте «М» в 3Д / Dial M for Murder 3D (Альфред Хичкок / Alfred Hitchcock) [1954, триллер, криминал, детектив, BDrip-avc] Half OverUnder / Вертикальная анаморфная стереопара TorrentFilm 13.32 GB
Ужасы и мистика Говард Филлипс Лавкрафт - Случай Чарльза Декстера Варда (2015) MP3 Swager 559 MB
Сатира и юмор Даниил Хармс - Анекдоты. Случаи. Рассказы. Стихи [Кирилл Стрельников, 2014] Magnat 521 MB
Мировая классика Диккенс Чарльз - Превосходный случай (2015) MP3 Swager 48 MB
Разная литература Дэн Маршалл - Лайфхаки на все случаи жизни (2015) PDF достали все 7 MB
Фильмы 2014 года Кристи / Случайные / Kristy / Random (Оливер Блэкберн / Oliver Blackburn) [2014, США, ужасы, триллер, HDRip-AVC] VO (Хихидок) + Sub Rus + Original Eng painkiller 746 MB
Фильмы 2014 года Кристи / Случайные / Kristy / Random (Оливер Блэкберн / Oliver Blackburn) [2014, США, ужасы, триллер, HDRip-AVC] VO + Original (Eng) + Sub (Rus) painkiller 1.45 GB
Показать сообщения:    

Текущее время: Сегодня 22:33

Часовой пояс: GMT



Вы не можете начинать темы
Вы не можете отвечать на сообщения
Вы не можете редактировать свои сообщения
Вы не можете удалять свои сообщения
Вы не можете голосовать в опросах
Вы не можете прикреплять файлы к сообщениям
Вы не можете скачивать файлы