Случайные / Кристи / Random / Kristy (Оливер Блэкберн / Oliver Blackburn) [2014, США, ужасы, HDRip] VO (xixidok) + Original Ger

 
Автор Сообщение

painkiller ®

Стаж: 2 года 3 месяца

Сообщений: 582



Награды: Нет

Торрент-статистика

Создавать темы 16-Авг-2014 01:28

[Цитировать]

Случайные / Кристи / Random / Kristy
Страна: США
Жанр: ужасы
Год выпуска: 2014
Продолжительность: 01:25:26
Перевод: Одноголосый закадровый xixidok
Cубтитры: нет
Оригинальная аудиодорожка: немецкий
Режиссер: Оливер Блэкберн / Oliver Blackburn
В ролях: Эшли Грин, Лукас Тилл, Хейли Беннетт, Джеймс Рэнсон, Крис Кой, Мэтью Ст. Патрик, Челси Брюленд, Джон Л. Армихо, Дэвид Дженсен, Уэйн Пер
Описание: Оставшись в одиночестве в кампусе на время празднования Дня Благодарения, студентка вынуждена сражаться с бандой бродяг. Ей предстоит побороть страхи, проявить все свои хитрость и смекалку, чтобы отразить нападение.
Доп. информация:

Сэмпл: http://multi-up.com/992373
Качество видео: HDRip
Формат видео: AVI
Видео: 720x304 (2.37:1), 23.976 fps, XviD build 50 ~1603 kbps avg, 0.30 bit/pixel
Аудио: 44.1 kHz, AC3 Dolby Digital, 2/0 (L,R) ch, ~224 kbps Rus
Аудио 2: 48 kHz, AC3 Dolby Digital, 3/2 (L,C,R,l,r) + LFE ch, ~448 kbps Ger

MediaInfo

General
Complete name : C:\Users\Вика\Desktop\Random.2014.HDRip.avi
Format : AVI
Format/Info : Audio Video Interleave
File size : 1.37 GiB
Duration : 1h 25mn
Overall bit rate : 2 290 Kbps
Writing application : VirtualDubMod 1.5.10.2 (build 2540/release)
Writing library : VirtualDubMod build 2540/release
Video
ID : 0
Format : MPEG-4 Visual
Format profile : Advanced Simple@L5
Format settings, BVOP : Yes
Format settings, QPel : No
Format settings, GMC : No warppoints
Format settings, Matrix : Default (MPEG)
Codec ID : XVID
Codec ID/Hint : XviD
Duration : 1h 25mn
Bit rate : 1 604 Kbps
Width : 720 pixels
Height : 304 pixels
Display aspect ratio : 2.35:1
Frame rate : 23.976 fps
Color space : YUV
Chroma subsampling : 4:2:0
Bit depth : 8 bits
Scan type : Progressive
Compression mode : Lossy
Bits/(Pixel*Frame) : 0.306
Stream size : 980 MiB (70%)
Writing library : XviD 1.2.1 (UTC 2008-12-04)
Audio #1
ID : 1
Format : AC-3
Format/Info : Audio Coding 3
Mode extension : CM (complete main)
Format settings, Endianness : Big
Codec ID : 2000
Duration : 1h 25mn
Bit rate mode : Constant
Bit rate : 224 Kbps
Channel count : 2 channels
Channel positions : Front: L R
Sampling rate : 44.1 KHz
Bit depth : 16 bits
Compression mode : Lossy
Stream size : 137 MiB (10%)
Alignment : Split accross interleaves
Interleave, duration : 42 ms (1.00 video frame)
Interleave, preload duration : 500 ms
Audio #2
ID : 2
Format : AC-3
Format/Info : Audio Coding 3
Mode extension : CM (complete main)
Format settings, Endianness : Big
Codec ID : 2000
Duration : 1h 25mn
Bit rate mode : Constant
Bit rate : 448 Kbps
Channel count : 6 channels
Channel positions : Front: L C R, Side: L R, LFE
Sampling rate : 48.0 KHz
Bit depth : 16 bits
Compression mode : Lossy
Stream size : 274 MiB (20%)
Alignment : Split accross interleaves
Interleave, duration : 42 ms (1.00 video frame)
Interleave, preload duration : 500 ms

Скриншоты

[Профиль] [ЛС]
Кто просматривает тему:

Форум Тема Автор Размер
Зарубежные В случае убийства набирайте «М» в 3Д / Dial M for Murder 3D (Альфред Хичкок / Alfred Hitchcock) [1954, Криминал, триллер, BDremux, 1080p] BD3D TorrentFilm 35.06 GB
Зарубежные В случае убийства набирайте «М» в 3Д / Dial M for Murder 3D (Альфред Хичкок / Alfred Hitchcock) [1954, триллер, криминал, детектив, BDrip-avc] Half OverUnder / Вертикальная анаморфная стереопара TorrentFilm 13.32 GB
Ужасы и мистика Говард Филлипс Лавкрафт - Случай Чарльза Декстера Варда (2015) MP3 Swager 559 MB
Сатира и юмор Даниил Хармс - Анекдоты. Случаи. Рассказы. Стихи [Кирилл Стрельников, 2014] Magnat 521 MB
Мировая классика Диккенс Чарльз - Превосходный случай (2015) MP3 Swager 48 MB
Разная литература Дэн Маршалл - Лайфхаки на все случаи жизни (2015) PDF достали все 7 MB
Фильмы 2014 года Кристи / Случайные / Kristy / Random (Оливер Блэкберн / Oliver Blackburn) [2014, США, ужасы, триллер, HDRip-AVC] VO (Хихидок) + Sub Rus + Original Eng painkiller 746 MB
Фильмы 2014 года Кристи / Случайные / Kristy / Random (Оливер Блэкберн / Oliver Blackburn) [2014, США, ужасы, триллер, HDRip-AVC] VO + Original (Eng) + Sub (Rus) painkiller 1.45 GB
Показать сообщения:    

Текущее время: Сегодня 18:29

Часовой пояс: GMT



Вы не можете начинать темы
Вы не можете отвечать на сообщения
Вы не можете редактировать свои сообщения
Вы не можете удалять свои сообщения
Вы не можете голосовать в опросах
Вы не можете прикреплять файлы к сообщениям
Вы не можете скачивать файлы