Случайные связи / Casual Encounters (2016) WEB-DL 1080p | L

 
Автор Сообщение

достали все ®

Пол:

Стаж: 2 года

Сообщений: 6796



Награды: 12 (Подробнее)

Mega Releaser 1 (Количество: 1) Top Releaser 3 (Количество: 1) Mega Releaser 3 (Количество: 1)
Торрент-статистика

Создавать темы 25-Июн-2016 16:29

[Цитировать]

Информация о фильме
Название: Случайные связи
Оригинальное название: Casual Encounters
Год выхода: 2016
Жанр: комедия
Режиссер: Закари Адлер
В ролях: Таран Киллэм, Бруклин Декер, Дэвид Крамхолц, Марк Бун Джуниор, Дэвид Аркетт, Сиенна Фарэлл, Эйми-Линн Чедвик, Damienne Merlina, Джеймс Бэйли, Джереми Бенжамин
О фильме: Когда девушка Джастина после 5 лет отношений расстаётся с ним, его друзья, казалось бы, из самых добрых побуждений знакомят его с миром онлайн-знакомств.

Выпущено: США / Traverse Media
Продолжительность: 01:20:49
Озвучивание: Любительское (многоголосое) [Parovoz Production]
Примечание: Релиз без рекламы.
Файл
Формат: MKV
Качество: WEB-DL 1080p
Видео: MPEG-4 AVC, 4412 kb/s, 1912x800
Аудио: Russian / English: AC3, 384 kb/s (6 ch)

MI

Format : Matroska
Format version : Version 2
File size : 2.98 GiB
Duration : 1h 20mn
Overall bit rate : 5 286 Kbps
Encoded date : UTC 2016-06-25 14:44:02
Writing application : mkvmerge v7.8.0 ('River Man') 32bit built on Apr 3 2015 12:11:22
Writing library : libebml v1.3.1 + libmatroska v1.4.2
Video
ID : 1
Format : AVC
Format/Info : Advanced Video Codec
Format profile : High@L4
Format settings, CABAC : Yes
Format settings, ReFrames : 5 frames
Codec ID : V_MPEG4/ISO/AVC
Duration : 1h 20mn
Bit rate : 4 412 Kbps
Width : 1 912 pixels
Height : 800 pixels
Display aspect ratio : 2.40:1
Frame rate mode : Constant
Frame rate : 23.976 fps
Color space : YUV
Chroma subsampling : 4:2:0
Bit depth : 8 bits
Scan type : Progressive
Bits/(Pixel*Frame) : 0.120
Stream size : 2.49 GiB (83%)
Language : English
Default : Yes
Forced : No
Color range : Limited
Color primaries : BT.709
Transfer characteristics : BT.709
Matrix coefficients : BT.709
Audio #1
ID : 2
Format : AC-3
Format/Info : Audio Coding 3
Mode extension : CM (complete main)
Format settings, Endianness : Big
Codec ID : A_AC3
Duration : 1h 20mn
Bit rate mode : Constant
Bit rate : 384 Kbps
Channel(s) : 6 channels
Channel positions : Front: L C R, Side: L R, LFE
Sampling rate : 48.0 KHz
Bit depth : 16 bits
Compression mode : Lossy
Stream size : 222 MiB (7%)
Language : Russian
Default : Yes
Forced : No
Audio #2
ID : 3
Format : AC-3
Format/Info : Audio Coding 3
Mode extension : CM (complete main)
Format settings, Endianness : Big
Codec ID : A_AC3
Duration : 1h 20mn
Bit rate mode : Constant
Bit rate : 384 Kbps
Channel(s) : 6 channels
Channel positions : Front: L C R, Side: L R, LFE
Sampling rate : 48.0 KHz
Bit depth : 16 bits
Compression mode : Lossy
Stream size : 222 MiB (7%)
Language : English
Default : No
Forced : No
Menu
00:00:00.000 : en:1
00:03:15.000 : en:2
00:13:48.000 : en:3
00:26:05.000 : en:4
00:35:34.000 : en:5
00:45:51.000 : en:6
00:56:23.000 : en:7
01:06:35.000 : en:8
01:14:38.000 : en:9

Скриншоты



[Профиль] [ЛС]
Показать сообщения:    

Текущее время: Сегодня 12:47

Часовой пояс: GMT



Вы не можете начинать темы
Вы не можете отвечать на сообщения
Вы не можете редактировать свои сообщения
Вы не можете удалять свои сообщения
Вы не можете голосовать в опросах
Вы не можете прикреплять файлы к сообщениям
Вы не можете скачивать файлы