Служу Советскому Союзу! (Александр Устюгов) [2012, Россия, драма, история, DVD5 (Сжатый)] Sub Rus + Original Rus

 
Автор Сообщение

TorrentFilm ®

Пол:

Стаж: 2 года

Сообщений: 7741



Награды: Нет

Торрент-статистика

Создавать темы 01-Янв-2016 00:07

[Цитировать]

-Служу Советскому Союзу!- Страна: Россия
Студия: Интер
Жанр: драма, история
Год выпуска: 2012
Мировая премьера: 26 февраля 2012
Дата выхода DVD: 27 июня 2012, «Кармен Видео»
Продолжительность: 01:37:20
Перевод: Не требуется
Cубтитры: русские
Оригинальная аудиодорожка: русский-Режиссёр: Александр Устюгов-В ролях: Максим Аверин, Нонна Гришаева, Юрий Ицков, Сергей Перегудов, Сергей Уманов, Дмитрий Поднозов, Олег Алмазов, Алексей Блохин, Виталий Тимашков, Сергей Оленберг-Описание: СССР, 1941 год. Она — всенародно любимая актриса, своевольная и независимая, способная отказать даже всесильному начальнику НКВД Лаврентию Берии. Он — не менее популярный писатель, «золотое перо» центральной газеты, денди и любимец публики. По мнению окружающих, они — самая гармоничная, просто образцовая «советская пара», но отношения двух ярких личностей далеки от гармонии.
Чтобы понять, насколько сильны их чувства, героям придется расстаться перед самой войной и вновь встретиться уже в лагере для заключенных в районе Мурманска, на берегу Белого моря. Он — как враг народа, допустивший непростительную опечатку в газете, она — как член коллектива художественной самодеятельности, обслуживающего подразделения ГУЛАГа. Когда недалеко от лагеря высаживается группа фашистских диверсантов, у заключенных появляется шанс доказать свою преданность Родине, а у бывших возлюбленных — восстановить свою любовь…
-Изготовление релизаИсходник: Служу Советскому Союзу! (Александр Устюгов) [2012, Россия, драма, история, DVD9] Sub Rus + Original Rus
Удалено: Дополнительные материалы, предупреждения и заставки.
Видео: Общее сжатие 23,4%.
Аудио: Нетронуто.
Меню: Сделал правильную навигацию, так как практически везде было TailPGC, все кнопки работают правильно, естественно кнопка дополнительно не работает, так как Hide Button
Обработка и сжатие: DVDReMake Pro 3.6.4 + DVD Rebuilder Professional Edition v1.28.2 + Cinema Craft Encoder SP2 1.00.01.09 в 9 проходов.

Log-файл DVD Rebuilder Professional Edition v1.28.2

-----------------
[19:57:06] Phase I, PREPARATION started.
- DVD-RB v1.28.2
- AVISYNTH 2.5.8.0
- CCE 1.0.1.9 encoder selected.
- AVS Filters are enabled.
- "Adaptive Quantizer Matrices" is enabled.
- Source: DVD
- VTS_01: 2 738 053 sectors.
-- Scanning and writing .D2V & .AVS files
-- Processed 146 006 frames.
-- Building .AVS and .ECL files
- Reduction Level for DVD-5: 76,6%
- Overall Bitrate : 5 403Kbs
- Space for Video : 3 852 040KB
- Analyzing VTS_01 for optimal Q factor.
-- TargetSize (sectors):1 954 908
-- Sampling 1464 of 146006 frames.
-- Predicted size (sectors) at Q=19: 2 513 156
-- Predicted size (sectors) at Q=26: 2 220 509
-- Predicted size (sectors) at Q=30: 2 070 291
-- Predicted size (sectors) at Q=32: 2 002 249
-- Predicted size (sectors) at Q=33: 1 969 801
-- Predicted size (sectors) at Q=166: 690 225
-- Predicted size (sectors) at Q=100: 950 385
-- Predicted size (sectors) at Q=66: 1 267 593
-- Predicted size (sectors) at Q=50: 1 531 979
-- Predicted size (sectors) at Q=34: 1 938 041
- Q Value selected: 34
- Redistributing Final_Q: 34
- HIGH/LOW/TYPICAL Bitrates: 7 037/3 016/5 403 Kbs
[20:22:57] Phase I, PREPARATION completed in 25 minutes.
[00:16:10] Phase II ENCODING started
- Extracting Video for VTS_01 segment 0
- Creating M2V for VTS_01 segment 1
- Creating M2V for VTS_01 segment 2
- Creating M2V for VTS_01 segment 3
- Creating M2V for VTS_01 segment 4
- Creating M2V for VTS_01 segment 5
[09:36:16] Phase II ENCODING started
- Creating M2V for VTS_01 segment 5
- Creating M2V for VTS_01 segment 6
- Creating M2V for VTS_01 segment 7
- Creating M2V for VTS_01 segment 8
- Creating M2V for VTS_01 segment 9
- Creating M2V for VTS_01 segment 10
- Creating M2V for VTS_01 segment 11
[11:47:00] Phase II ENCODING completed in 131 minutes.
[11:47:57] Phase III, REBUILD started.
- Copying IFO, BUP, and unaltered files...
- Processing VTS_01
- Reading/processing TMAP table...
- Rebuilding seg 0 VOBID 1 CELLID 1
- Rebuilding seg 1 VOBID 1 CELLID 2
- Rebuilding seg 2 VOBID 1 CELLID 3
- Rebuilding seg 3 VOBID 1 CELLID 4
- Rebuilding seg 4 VOBID 1 CELLID 5
- Rebuilding seg 5 VOBID 1 CELLID 6
- Rebuilding seg 6 VOBID 1 CELLID 7
- Rebuilding seg 7 VOBID 1 CELLID 8
- Rebuilding seg 8 VOBID 1 CELLID 9
- Rebuilding seg 9 VOBID 1 CELLID 10
- Rebuilding seg 10 VOBID 1 CELLID 11
- Rebuilding seg 11 VOBID 1 CELLID 12
- Updating NAVPACKS for VOBID_01
- Updated VTS_C_ADT.
- Updated VTS_VOBU_ADMAP.
- Updated IFO: VTS_01_0.IFO
- Updating TMAP table...
- Correcting VTS Sectors...
[11:55:51] Phase III, REBUILD completed in 8 minutes.
Done.

Скриншоты

Исходник:

Проделанная работа:
-Бонусы: Нет-Меню: Русское / анимированное / статичное / озвученное.- -Тип релиза: DVD5 (Сжатый)
Контейнер: DVD-Video
Видео кодек: MPEG2
Аудио кодек: AC3-Видео: MPEG-2, PAL 16:9 (720x576) VBR Auto Letterboxed, 25,000 кадров/сек, 5403 Кбит/сек
Аудио: Russian (Dolby AC3, 6 ch), 48,0 КГц, 384 Кбит/сек, 16 бит
Аудио 2: Russian (Dolby AC3, 2 ch), 48,0 КГц, 192 Кбит/сек, 16 бит-

MediaInfo

Общее
Полное имя : D:\Александр\Фильмы\Служу советскому союзу! (2012) DVD5 (Сжатый)\VIDEO_TS\VTS_01_1.VOB
Формат : MPEG-PS
Размер файла : 1024 Мбайт
Продолжительность : 22 м.
Режим общего битрейта : Переменный
Общий поток : 6507 Кбит/сек
Видео
Идентификатор : 224 (0xE0)
Формат : MPEG Video
Версия формата : Version 2
Профиль формата : Main@Main
Параметр BVOP формата : Да
Параметр матрицы формата : Выборочная
Параметр GOP формата : M=3, N=12
Продолжительность : 22 м.
Вид битрейта : Переменный
Битрейт : 5802 Кбит/сек
Максимальный битрейт : 8500 Кбит/сек
Ширина : 720 пикселей
Высота : 576 пикселей
Соотношение сторон : 16:9
Частота кадров : 25,000 кадров/сек
Стандарт вещания : PAL
Цветовое пространство : YUV
Субдискретизация насыщенности : 4:2:0
Битовая глубина : 8 бит
Тип развёртки : Чересстрочная
Порядок развёртки : Верхнее поле первое
Метод сжатия : С потерями
Бит/(Пиксели*Кадры) : 0.560
Размер потока : 913 Мбайт (89%)
Основные цвета : BT.470-2 System B, BT.470-2 System G
Характеристики трансфера : BT.470-2 System B, BT.470-2 System G
Коэффициенты матрицы : SMPTE 170M
Аудио #1
Идентификатор : 189 (0xBD)-128 (0x80)
Формат : AC-3
Формат/Информация : Audio Coding 3
Расширение режима : CM (complete main)
Параметр Endianness формата : Big
Режим смешивания : DVD-Video
Продолжительность : 21 м.
Вид битрейта : Постоянный
Битрейт : 384 Кбит/сек
Каналы : 6 каналов
Расположение каналов : Front: L C R, Side: L R, LFE
Частота : 48,0 КГц
Битовая глубина : 16 бит
Метод сжатия : С потерями
Размер потока : 60,4 Мбайт (6%)
Аудио #2
Идентификатор : 189 (0xBD)-129 (0x81)
Формат : AC-3
Формат/Информация : Audio Coding 3
Расширение режима : CM (complete main)
Параметр Endianness формата : Big
Режим смешивания : DVD-Video
Продолжительность : 21 м.
Вид битрейта : Постоянный
Битрейт : 192 Кбит/сек
Каналы : 2 канала
Расположение каналов : Front: L R
Частота : 48,0 КГц
Битовая глубина : 16 бит
Метод сжатия : С потерями
Размер потока : 30,2 Мбайт (3%)
Текст
Идентификатор : 189 (0xBD)-32 (0x20)
Формат : RLE
Формат/Информация : Run-length encoding
Режим смешивания : DVD-Video
Меню

DVDInfo

Title: Служу советскому союзу! (2012) DVD5 (Сжатый)
Size: 4.34 Gb ( 4 555 540,00 KBytes ) - DVD-5
Enabled regions: 1, 2, 3, 4, 5, 6, 7, 8
VTS_01 :
Play Length: 01:37:20
Video: PAL 16:9 (720x576) VBR, Auto Letterboxed
Audio:
Russian, AC3, 3/2 (L,C,R,SL,SR)+LFE ch, 384 kbps, Delay 0 mSec
Russian, AC3, 2/0 (L,R) ch, 192 kbps, Delay 0 mSec
Subtitles:
Russian
* Menus Information *
VIDEO_TS Menu
Video:
NTSC 4:3 (720x480) VBR
Auto Pan&Scan, Auto Letterboxed
Russian Language Unit :
Title Menu
VTS_01 Menu
Video:
PAL 16:9 (720x576) VBR
Auto Letterboxed
Audio:
Not specified (Dolby AC3, 2 ch)
Russian Language Unit :
Root Menu
Audio Menu
Chapter (PTT) Menu

Скриншоты меню

[Профиль] [ЛС]
Показать сообщения:    

Текущее время: Сегодня 23:30

Часовой пояс: GMT



Вы не можете начинать темы
Вы не можете отвечать на сообщения
Вы не можете редактировать свои сообщения
Вы не можете удалять свои сообщения
Вы не можете голосовать в опросах
Вы не можете прикреплять файлы к сообщениям
Вы не можете скачивать файлы