Служу Советскому Союзу! (Александр Устюгов) [2012, Россия, драма, история, DVD9] Sub Rus + Original Rus

 
Автор Сообщение

TorrentFilm ®

Пол:

Стаж: 1 год 11 месяцев

Сообщений: 7741



Награды: Нет

Торрент-статистика

Создавать темы 01-Янв-2016 00:07

[Цитировать]

-Служу Советскому Союзу!- Страна: Россия
Кинокомпания: Интер
Жанр: драма, история
Год выпуска: 2012
Мировая премьера: 26 февраля 2012
Дата выхода DVD: 27 июня 2012, «Кармен Видео»
Продолжительность: 01:37:21
Перевод: Не требуется
Cубтитры: русские
Оригинальная аудиодорожка: русский-Режиссёр: Александр Устюгов-В ролях: Максим Аверин, Нонна Гришаева, Юрий Ицков, Сергей Перегудов, Сергей Уманов, Дмитрий Поднозов, Олег Алмазов, Алексей Блохин, Виталий Тимашков, Сергей Оленберг-Описание: СССР, 1941 год. Она — всенародно любимая актриса, своевольная и независимая, способная отказать даже всесильному начальнику НКВД Лаврентию Берии. Он — не менее популярный писатель, «золотое перо» центральной газеты, денди и любимец публики. По мнению окружающих, они — самая гармоничная, просто образцовая «советская пара», но отношения двух ярких личностей далеки от гармонии.
Чтобы понять, насколько сильны их чувства, героям придется расстаться перед самой войной и вновь встретиться уже в лагере для заключенных в районе Мурманска, на берегу Белого моря. Он — как враг народа, допустивший непростительную опечатку в газете, она — как член коллектива художественной самодеятельности, обслуживающего подразделения ГУЛАГа. Когда недалеко от лагеря высаживается группа фашистских диверсантов, у заключенных появляется шанс доказать свою преданность Родине, а у бывших возлюбленных — восстановить свою любовь…
-Бонусы: Смотрите на DVD-Меню: Русское / анимированное / статичное / озвученное.- -Тип релиза: DVD9
Контейнер: DVD-Video
Видео кодек: MPEG2
Аудио кодек: AC3-Видео: MPEG-2, PAL 16:9 (720x576) VBR Auto Letterboxed, 25,000 кадров/сек, 6869 Кбит/сек
Аудио: Russian (Dolby AC3, 6 ch), 48,0 КГц, 384 Кбит/сек, 16 бит
Аудио 2:Russian (Dolby AC3, 2 ch), 48,0 КГц, 192 Кбит/сек, 16 бит
-

MediaInfo

Общее
Полное имя : D:\Александр\Фильмы\Служу советскому союзу! (2012) DVD9\VIDEO_TS\VTS_01_2.VOB
Формат : MPEG-PS
Размер файла : 1024 Мбайт
Продолжительность : 18 м.
Режим общего битрейта : Переменный
Общий поток : 7596 Кбит/сек
Видео
Идентификатор : 224 (0xE0)
Формат : MPEG Video
Версия формата : Version 2
Профиль формата : Main@Main
Параметр BVOP формата : Да
Параметр матрицы формата : Выборочная
Параметр GOP формата : M=3, N=12
Продолжительность : 18 м.
Вид битрейта : Переменный
Битрейт : 6869 Кбит/сек
Максимальный битрейт : 8500 Кбит/сек
Ширина : 720 пикселей
Высота : 576 пикселей
Соотношение сторон : 16:9
Частота кадров : 25,000 кадров/сек
Стандарт вещания : PAL
Цветовое пространство : YUV
Субдискретизация насыщенности : 4:2:0
Битовая глубина : 8 бит
Тип развёртки : Чересстрочная
Порядок развёртки : Верхнее поле первое
Метод сжатия : С потерями
Бит/(Пиксели*Кадры) : 0.663
Размер потока : 926 Мбайт (90%)
Основные цвета : BT.470-2 System B, BT.470-2 System G
Характеристики трансфера : BT.470-2 System B, BT.470-2 System G
Коэффициенты матрицы : SMPTE 170M
Аудио #1
Идентификатор : 189 (0xBD)-128 (0x80)
Формат : AC-3
Формат/Информация : Audio Coding 3
Расширение режима : CM (complete main)
Параметр Endianness формата : Big
Режим смешивания : DVD-Video
Продолжительность : 18 м.
Вид битрейта : Постоянный
Битрейт : 384 Кбит/сек
Каналы : 6 каналов
Расположение каналов : Front: L C R, Side: L R, LFE
Частота : 48,0 КГц
Битовая глубина : 16 бит
Метод сжатия : С потерями
Задержка видео : -544 мс.
Размер потока : 51,8 Мбайт (5%)
Аудио #2
Идентификатор : 189 (0xBD)-129 (0x81)
Формат : AC-3
Формат/Информация : Audio Coding 3
Расширение режима : CM (complete main)
Параметр Endianness формата : Big
Режим смешивания : DVD-Video
Продолжительность : 18 м.
Вид битрейта : Постоянный
Битрейт : 192 Кбит/сек
Каналы : 2 канала
Расположение каналов : Front: L R
Частота : 48,0 КГц
Битовая глубина : 16 бит
Метод сжатия : С потерями
Задержка видео : -512 мс.
Размер потока : 25,9 Мбайт (3%)
Текст
Идентификатор : 189 (0xBD)-32 (0x20)
Формат : RLE
Формат/Информация : Run-length encoding
Режим смешивания : DVD-Video
Продолжительность : 18 м.
Задержка видео : 4 с. 240 мс.
Меню

DVDInfo

Title: Служу советскому союзу! (2012) DVD9
Size: 5.87 Gb ( 6 151 366,00 KBytes ) - DVD-9
Enabled regions: 1, 2, 3, 4, 5, 6, 7, 8
VTS_01 :
Play Length: 00:00:01+01:37:21+00:00:01
Video: PAL 16:9 (720x576) VBR, Auto Letterboxed
Audio:
Russian, AC3, 3/2 (L,C,R,SL,SR)+LFE ch, 384 kbps, Delay 0 mSec
Russian, AC3, 2/0 (L,R) ch, 192 kbps, Delay 0 mSec
Subtitles:
Russian
VTS_02 :
Play Length: 00:00:01+00:00:05+00:00:13
Video: PAL 16:9 (720x576) VBR, Auto Letterboxed
Audio:
Russian, AC3, 3/2 (L,C,R,SL,SR)+LFE ch, 384 kbps, Delay 0 mSec
VTS_03 :
Play Length: 00:00:01+00:04:41+00:00:01
Video: PAL 16:9 (720x576) VBR, Auto Letterboxed
Audio:
Russian, AC3, 2/0 (L,R) ch, 192 kbps, Delay 68 mSec
VTS_04 :
Play Length: 00:00:01+00:05:17+00:00:01
Video: PAL 16:9 (720x576) VBR, Auto Letterboxed
Audio:
Russian, AC3, 2/0 (L,R) ch, 192 kbps, Delay 68 mSec
* Menus Information *
VIDEO_TS Menu
Video:
NTSC 4:3 (720x480) VBR
Auto Pan&Scan, Auto Letterboxed
Russian Language Unit :
Title Menu
VTS_01 Menu
Video:
PAL 16:9 (720x576) VBR
Auto Letterboxed
Audio:
Not specified (Dolby AC3, 2 ch)
Russian Language Unit :
Root Menu
VTS_02 Menu
Video:
NTSC 4:3 (720x480) VBR
Auto Pan&Scan, Auto Letterboxed
Language Unit :
Angle menu
Language Unit :
Root Menu
Language Unit :
Root Menu
VTS_03 Menu
Video:
NTSC 4:3 (720x480) VBR
Auto Pan&Scan, Auto Letterboxed
Language Unit :
Angle menu
Language Unit :
Root Menu
Chapter (PTT) Menu
Language Unit :
Root Menu
Chapter (PTT) Menu
VTS_04 Menu
Video:
NTSC 4:3 (720x480) VBR
Auto Pan&Scan, Auto Letterboxed
Russian Language Unit :
Root Menu

Скриншоты меню

Скриншоты

[Профиль] [ЛС]
Показать сообщения:    

Текущее время: Сегодня 22:35

Часовой пояс: GMT



Вы не можете начинать темы
Вы не можете отвечать на сообщения
Вы не можете редактировать свои сообщения
Вы не можете удалять свои сообщения
Вы не можете голосовать в опросах
Вы не можете прикреплять файлы к сообщениям
Вы не можете скачивать файлы