Служители / Acolytes / Die Erpresser (Джон Хьюит / Jon Hewitt) [2008, Австралия, ужасы, триллер, драма, криминал, DVDRip] DVO

 
Автор Сообщение

TorrentFilm ®

Пол:

Стаж: 2 года

Сообщений: 7741



Награды: Нет

Торрент-статистика

Создавать темы 26-Янв-2015 00:15

[Цитировать]

Служители / Acolytes / Die Erpresser
Страна: Австралия
Жанр: ужасы, триллер, драма, криминал
Год выпуска: 2008
Продолжительность: 01:27:55
Перевод: Любительский (двухголосый закадровый)
Cубтитры: нет
Режиссер: Джон Хьюит /Jon Hewitt
В ролях: Джоэл Эдгертон, Майкл Дорман, Себастьян Грегори, Ханна Мэнгэн Лоуренс, Джошуа Пэйн, Белинда МакКлори, Холли Болдуин, Энтони Фелан, Белла Хиткот, Сью Двайер
Описание: Два парня и девушка случайным образом выходят на серийного убийцу, и вместо того, чтобы заявить на него в полицию, они решают его шантажировать.
Сэмпл: http://multi-up.com/1028581
Качество видео: DVDRip - Исходник
Формат видео: AVI
Видео: 720x304 (2.37:1), 25 fps, XviD, 1045 kbps, 0.19 bit/pixel
Аудио: 48 kHz, MPEG Layer 3, 2 ch, 128.00 kbps, DVO

MediaInfo

General
Complete name : E:\Раздачи\torrentfilm.net\Sluzhiteli_745_by_max1wq.avi
Format : AVI
Format/Info : Audio Video Interleave
File size : 744 MiB
Duration : 1h 27mn
Overall bit rate : 1 184 Kbps
Writing application : VirtualDubMod 1.5.10.2 (build 2540/release)
Writing library : VirtualDubMod build 2540/release
Video
ID : 0
Format : MPEG-4 Visual
Format profile : Advanced Simple@L5
Format settings, BVOP : 2
Format settings, QPel : No
Format settings, GMC : No warppoints
Format settings, Matrix : Custom
Codec ID : XVID
Codec ID/Hint : XviD
Duration : 1h 27mn
Bit rate : 1 046 Kbps
Width : 720 pixels
Height : 304 pixels
Display aspect ratio : 2.35:1
Frame rate : 25.000 fps
Color space : YUV
Chroma subsampling : 4:2:0
Bit depth : 8 bits
Scan type : Progressive
Compression mode : Lossy
Bits/(Pixel*Frame) : 0.191
Stream size : 658 MiB (88%)
Writing library : XviD 73
Audio
ID : 1
Format : MPEG Audio
Format version : Version 1
Format profile : Layer 3
Codec ID : 55
Codec ID/Hint : MP3
Duration : 1h 27mn
Bit rate mode : Constant
Bit rate : 128 Kbps
Channel(s) : 2 channels
Sampling rate : 48.0 KHz
Compression mode : Lossy
Stream size : 80.5 MiB (11%)
Alignment : Aligned on interleaves
Interleave, duration : 40 ms (1.00 video frame)
Interleave, preload duration : 504 ms
Сравнениеhttp://torrentfilm.net/forum/viewtopic.php?t=2234125
http://screenshotcomparison.com/comparison/111345/picture:0
[Профиль] [ЛС]

Создавать темы 06-Авг-2015 22:47 (спустя 6 месяцев 11 дней)

Топик был перенесен из форума Фильмы до 2014 года в форум Фильмы до 2012 года
sergej644
 

Создавать темы 12-Июн-2016 08:51 (спустя 1 год 4 месяца)

Топик был перенесен из форума Фильмы 2011 года в форум Фильмы 2006-2008 года
Russian Mafia
 
Показать сообщения:    

Текущее время: Сегодня 08:18

Часовой пояс: GMT



Вы не можете начинать темы
Вы не можете отвечать на сообщения
Вы не можете редактировать свои сообщения
Вы не можете удалять свои сообщения
Вы не можете голосовать в опросах
Вы не можете прикреплять файлы к сообщениям
Вы не можете скачивать файлы