Служебный роман (Эльдар Рязанов) [1977, СССР, мелодрама, комедия, Blu ray > 2 x DVD5 (Custom)] Sub Rus + Original Rus

 
Автор Сообщение

TorrentFilm ®

Пол:

Стаж: 2 года

Сообщений: 7741



Награды: Нет

Торрент-статистика

Создавать темы 01-Янв-2016 00:07

[Цитировать]

Служебный роман Страна: СССР
Студия: Мосфильм
Жанр: мелодрама, комедия
Год выпуска: 1977
Продолжительность: 01:23:35 + 01:06:39
Перевод: Не требуется
Cубтитры: русские
Оригинальная аудиодорожка: русский
Режиссер: Эльдар Рязанов
В ролях: Андрей Мягков, Алиса Фрейндлих, Светлана Немоляева, Олег Басилашвили, Лия Ахеджакова, Георгий Бурков, Зоя Исаева, Людмила Иванова, Петр Щербаков, Мария Виноградова.
Описание: Анатолий Ефремович Новосельцев, рядовой служащий одного статистического управления, - человек робкий и застенчивый. Для него неплохо бы получить вакантное место зав. отделом, но он не знает как подступиться к этому делу. Старый приятель Самохвалов советует ему приударить за Людмилой Прокопьевной Калугиной, - сухарем в юбке и директором заведения...

Это интересно

Актёры для этого фильма были подобраны очень быстро, поскольку у Рязанова оставались своеобразные «резервы» после кинопроб в других его картинах: Светлана Немоляева пробовалась на роль Нади в фильме «Ирония судьбы, или С лёгким паром!», в нём же были в числе претендентов на роли Олег Басилашвили (должен был играть Ипполита, но накануне съёмок у него умер отец) и Алиса Фрейндлих (которая пробовалась также в фильмах Рязанова «Гусарская баллада» и «Зигзаг удачи»). С «Иронией судьбы» связано также и появление в «Служебном романе» Андрея Мягкова и Лии Ахеджаковой.
По словам Рязанова, Андрею Мягкову специально налепили такие несуразные усики и очки в грубой оправе, чтобы он в начале фильма производил как можно большее впечатление «канцелярской крысы», безынициативного недотёпы. Это было сделать довольно непросто, так как два года назад актёр полюбился всей стране в роли Жени Лукашина из «Иронии судьбы», но режиссёр изо всех сил старался как можно дальше увести его нынешний персонаж от предыдущего.
По словам Рязанова, сцена «романтического застолья» Калугиной и Новосельцева у неё дома — исключительная импровизация этих двух актёров, сыгранная на высшем уровне актёрского мастерства. Также полной импровизацией была сцена «подката» Новосельцева с «рационализаторским предложением» к Калугиной, на торжестве у Самохвалова.
Снег на деревьях с ещё зелёной листвой, запечатлённый в фильме, выпал в Москве 18 сентября 1976 года. Первоначально подобной сцены в фильме не планировалось, но режиссёр решил не упустить такой красивый каприз природы и удлинил фильм на три с половиной минуты.
Чтобы не превращать фильм в телеспектакль, с действием исключительно в помещениях (как, например, следующий фильм Рязанова «Гараж») Эльдар Рязанов решил «разбавлять» сцены внутри зданий видами бурлящей пешеходами и автомобилями Москвы, а также её красивыми пейзажами (и тут выпавший в сентябре снег пришёлся как нельзя кстати).
Действие фильма происходит практически всё время в одном здании статистического учреждения. Примечательно, что три части этого здания на самом деле снимались в разных местах Москвы:
Вход в учреждение, его фасад — это вход в бывший торговый дом Хомякова по адресу ул. Кузнецкий Мост, д. 6/3, на пересечении с ул. Петровка, в котором находится нынешнее Федеральное агентство морского и речного транспорта.
Все внутренние помещения (включая кабинеты Калугиной, Самохвалова, и рабочий зал учреждения) были сооружены в павильонах Мосфильма.
Крыша с растениями — это крыша дома, находящегося по адресу Большой Гнездниковский переулок, 10.
Создатели фильма намеренно «поселили» героев в разных местах Москвы и Подмосковья, чтобы проследить маршрут движения каждого из дома на работу, а также подчеркнуть их социальный статус:
Людмилу Калугину — в «элитный» дом по адресу: улица Большая Никитская, 43а, фасад дома выходит на Скатертный переулок.
Юрия Самохвалова — на улицу Горького, в дом по соседству с Центральным телеграфом (центр Москвы).
Рядовых сотрудников «разместили» в спальных районах:
Новосельцева — в Переулке Чернышевского 4 стр1.
Секретаршу Верочку — на Чертановской улице.
Рыжову — в Подмосковье, на Ярославском направлении (в одном из первых кадров фильма, где Ольга едет на работу и бежит к электричке, диктор на станции зачитывает пропускаемые электричкой остановки «Маленковская» и «Москва-3», а прибывает электричка на Ярославский вокзал — чётко видно его современное здание).
История с письмами героини Светланы Немоляевой была взята авторами фильма из жизни коллег-кинематографистов. Имена прототипов до сих пор не называются.
Актриса Людмила Иванова, игравшая активистку Шурочку, действительно в те годы была председателем месткома в театре «Современник».
Благодаря многочисленным актёрским экспромтам материала было отснято намного больше, чем вошло в окончательный вариант фильма (почти на три серии вместо двух). Например, из фильма был вырезан эпизод, в котором Шурочка, после появления «ожившего» Бубликова, несется по коридорам статистического учреждения с криком: «Я не виновата! Умер однофамилец, а позвонили нам!», а на неё идёт с кулаками рассерженный Бубликов. Наконец Шура набирается смелости, выходит ему навстречу и восклицает: «Да здравствует живой товарищ Бубликов!» — и все аплодируют. Бубликов в изумлении говорит: «Товарищи, спасибо за всё».
В первоначальном сценарии муж Верочки был одним из основных героев фильма, тоже сотрудником «статистического учреждения». По замыслу сценаристов, он постоянно выяснял отношения с женой. Его роль исполнил Александр Фатюшин (пробовался Михаил Светин). С ним было отснято много материала, например, как они спорили о том, рожать ли им ребёнка, или как они уезжали после работы на мотороллере. Но из-за травмы глаза Фатюшин не смог сниматься. В итоге этот персонаж был вообще практически удалён из фильма — он только разговаривал с Верочкой по телефону, но даже озвучивал «голос в трубке» другой актёр — Олег Басилашвили. Сам Фатюшин появляется в фильме эпизодически, в массовке (и никто даже предположить себе не может, что это, в первоначальном варианте фильма, — муж Верочки): первый раз — всего на пару секунд, сразу после титров, когда Новосельцев пытается занять 20 рублей у Ольги, второй раз — в сцене всеобщего изумления, когда в вестибюле учреждения появляется «передумавший» умирать Бубликов, третий раз — в сцене умиления сотрудников учреждения новым «имиджем» влюблённой Калугиной.
Бронзовый конь, которого переносит Новосельцев, ранее был задействован в фильме Леонида Гайдая «Бриллиантовая рука».
Слова песни «У природы нет плохой погоды» были написаны самим Рязановым (по его словам, в том случае он перебрал массу вариантов стихов известных поэтов, но так ничего и не нашёл — и «пришлось» писать самому), но он передал их композитору фильма Андрею Петрову под видом стихотворения английского поэта Уильяма Блейка, дабы просто не смущать коллегу. Тот «подлога» не почувствовал, но после того, как через некоторое время узнал истинное авторство слов песни, ему многие стихи известных, знаменитых поэтов, которые предлагал Рязанов в процессе их дальнейшего сотрудничества над его картинами, «мерещились» стихами авторства Рязанова.
Во время съёмок фильма «Ирония судьбы, или С лёгким паром!» Мягков выражал недовольство по поводу того, что Рязанов «не разрешил» ему исполнять песни (за него в картине пел Сергей Никитин). В «Служебном романе» поёт уже сам Мягков.
В фильме можно увидеть различную технику СССР и стран СЭВ, ныне представляющую интерес для коллекционеров и реставраторов предметов технической старины, в частности:
Микрокалькуляторы «Elka 50m» и «Soemtron 220»;
Видеотерминалы «Видеотон VT-340»;
Аудиокассеты BASF.
Одним из «героев» фильма является автомобиль «Волга ГАЗ-24» — личная машина Самохвалова и служебный автомобиль Калугиной.
На работу герои добираются на автобусах модели «ЛиАЗ-677», часто попадающих в кадр.
В различных эпизодах фильма, где фигурируют улицы Москвы и её транспорт, часто в кадре проносятся троллейбусы модели «ЗиУ-5», нередко сразу несколько, являвшиеся в то время основной моделью троллейбуса, эксплуатировавшегося в Москве.
В уличных эпизодах фильма задействовано не больше десяти частных легковых автомобилей. Например, темно-зеленый ГАЗ-21 "Волга" в сцене разговора Шурочки с Рыжовой проезжает туда-сюда четыре раза.
Меню: частично анимированное русское, озвученное, авторское
Сэмпл 1 серия: http://multi-up.com/734010
Сэмпл 2 серия: http://multi-up.com/734012
Тип релиза: Blu ray > 2 x DVD5 (Custom)
Контейнер: DVD-Video
Видео: 1 серия: MPEG Video,PAL,720*576,VBR,4:3,7536 Кбит/сек,25 Кбит/сек
Видео: 2 серия: MPEG Video,PAL,720*576,VBR,4:3,8560 Кбит/сек,25 Кбит/сек
Аудио: Русский AC3,6 каналов, 48,0 КГц, 448 Кбит/сек
Формат субтитров: softsub (SRT)
Источник- Blu-Ray. БОЛЬШОЕ СПАСИБО ЗА НЕГО am@zon.
Отдельное СПАСИБО darth_san за помощь в подготовке релиза.

MediaInfo Disk1

Общее
Полное имя : E:\Convertirov_ BD_DVD\Slugebnij_roman\Probn_proverka\Служебный_роман\DVD5_1s\VIDEO_TS\VIDEO_TS.BUP
Формат : DVD Video
Профиль формата : Menu
Размер файла : 12,0 Кбайт
Режим общего битрейта : Переменный
Видео
Идентификатор : 224 (0xE0)
Формат : MPEG Video
Версия формата : Version 2
Вид битрейта : Переменный
Ширина : 720 пикселей
Высота : 576 пикселей
Соотношение сторон : 4:3
Частота кадров : 25,000 кадров/сек
Стандарт вещания : PAL
Метод сжатия : С потерями
Общее
Полное имя : E:\Convertirov_ BD_DVD\Slugebnij_roman\Probn_proverka\Служебный_роман\DVD5_1s\VIDEO_TS\VIDEO_TS.IFO
Формат : DVD Video
Профиль формата : Menu
Размер файла : 12,0 Кбайт
Режим общего битрейта : Переменный
Видео
Идентификатор : 224 (0xE0)
Формат : MPEG Video
Версия формата : Version 2
Вид битрейта : Переменный
Ширина : 720 пикселей
Высота : 576 пикселей
Соотношение сторон : 4:3
Частота кадров : 25,000 кадров/сек
Стандарт вещания : PAL
Метод сжатия : С потерями
Общее
Полное имя : E:\Convertirov_ BD_DVD\Slugebnij_roman\Probn_proverka\Служебный_роман\DVD5_1s\VIDEO_TS\VIDEO_TS.VOB
Формат : MPEG-PS
Размер файла : 48,0 Кбайт
Продолжительность : 40 мс.
Режим общего битрейта : Переменный
Общий поток : 9830 Кбит/сек
Видео
Идентификатор : 224 (0xE0)
Формат : MPEG Video
Версия формата : Version 2
Профиль формата : Main@Main
Параметр BVOP формата : Нет
Параметр матрицы формата : По умолчанию
Продолжительность : 40 мс.
Вид битрейта : Переменный
Максимальный битрейт : 9000 Кбит/сек
Ширина : 720 пикселей
Высота : 576 пикселей
Соотношение сторон : 4:3
Частота кадров : 25,000 кадров/сек
Стандарт вещания : PAL
Цветовое пространство : YUV
Субдискретизация насыщенности : 4:2:0
Битовая глубина : 8 бит
Тип развёртки : Прогрессивная
Порядок развёртки : Верхнее поле первое
Метод сжатия : С потерями
Основные цвета : BT.470-2 System B, BT.470-2 System G
Характеристики трансфера : BT.470-2 System B, BT.470-2 System G
Коэффициенты матрицы : BT.470-2 System B, BT.470-2 System G
Меню
Общее
Полное имя : E:\Convertirov_ BD_DVD\Slugebnij_roman\Probn_proverka\Служебный_роман\DVD5_1s\VIDEO_TS\VTS_01_0.BUP
Формат : DVD Video
Профиль формата : Program
Размер файла : 56,0 Кбайт
Продолжительность : 1 ч. 23 м.
Режим общего битрейта : Переменный
Общий поток : 91 бит/сек
Видео
Идентификатор : 224 (0xE0)
Формат : MPEG Video
Версия формата : Version 2
Продолжительность : 1 ч. 23 м.
Вид битрейта : Переменный
Ширина : 720 пикселей
Высота : 576 пикселей
Соотношение сторон : 4:3
Частота кадров : 25,000 кадров/сек
Стандарт вещания : PAL
Метод сжатия : С потерями
Аудио
Идентификатор : 128 (0x80)
Формат : AC-3
Формат/Информация : Audio Coding 3
Продолжительность : 1 ч. 23 м.
Каналы : 6 каналов
Частота : 48,0 КГц
Метод сжатия : С потерями
Язык : Russian
Текст
Идентификатор : 32 (0x20)
Формат : RLE
Формат/Информация : Run-length encoding
Битовая глубина : 2 бит
Язык : Russian
Меню
Продолжительность : 1 ч. 23 м.
00:00:00.000 : Chapter 1
00:05:24.880 : Chapter 2
00:11:28.960 : Chapter 3
00:16:27.440 : Chapter 4
00:22:08.240 : Chapter 5
00:27:31.800 : Chapter 6
00:33:18.120 : Chapter 7
00:39:25.000 : Chapter 8
00:44:39.680 : Chapter 9
00:49:56.840 : Chapter 10
00:55:44.360 : Chapter 11
01:01:32.960 : Chapter 12
List (Audio) : 0
List (Subtitles 4/3) : 0
List (Subtitles Wide) : 0
List (Subtitles Letterbox) : 0
List (Subtitles Pan&Scan) : 0
Общее
Полное имя : E:\Convertirov_ BD_DVD\Slugebnij_roman\Probn_proverka\Служебный_роман\DVD5_1s\VIDEO_TS\VTS_01_0.IFO
Формат : DVD Video
Профиль формата : Program
Размер файла : 56,0 Кбайт
Продолжительность : 1 ч. 23 м.
Режим общего битрейта : Переменный
Общий поток : 91 бит/сек
Видео
Идентификатор : 224 (0xE0)
Формат : MPEG Video
Версия формата : Version 2
Продолжительность : 1 ч. 23 м.
Вид битрейта : Переменный
Ширина : 720 пикселей
Высота : 576 пикселей
Соотношение сторон : 4:3
Частота кадров : 25,000 кадров/сек
Стандарт вещания : PAL
Метод сжатия : С потерями
Аудио
Идентификатор : 128 (0x80)
Формат : AC-3
Формат/Информация : Audio Coding 3
Продолжительность : 1 ч. 23 м.
Каналы : 6 каналов
Частота : 48,0 КГц
Метод сжатия : С потерями
Язык : Russian
Текст
Идентификатор : 32 (0x20)
Формат : RLE
Формат/Информация : Run-length encoding
Битовая глубина : 2 бит
Язык : Russian
Меню
Продолжительность : 1 ч. 23 м.
00:00:00.000 : Chapter 1
00:05:24.880 : Chapter 2
00:11:28.960 : Chapter 3
00:16:27.440 : Chapter 4
00:22:08.240 : Chapter 5
00:27:31.800 : Chapter 6
00:33:18.120 : Chapter 7
00:39:25.000 : Chapter 8
00:44:39.680 : Chapter 9
00:49:56.840 : Chapter 10
00:55:44.360 : Chapter 11
01:01:32.960 : Chapter 12
List (Audio) : 0
List (Subtitles 4/3) : 0
List (Subtitles Wide) : 0
List (Subtitles Letterbox) : 0
List (Subtitles Pan&Scan) : 0
Общее
Полное имя : E:\Convertirov_ BD_DVD\Slugebnij_roman\Probn_proverka\Служебный_роман\DVD5_1s\VIDEO_TS\VTS_01_0.VOB
Формат : MPEG-PS
Размер файла : 39,8 Мбайт
Продолжительность : 40 с.
Режим общего битрейта : Переменный
Общий поток : 8350 Кбит/сек
Видео
Идентификатор : 224 (0xE0)
Формат : MPEG Video
Версия формата : Version 2
Профиль формата : Main@Main
Параметр BVOP формата : Да
Параметр матрицы формата : По умолчанию
Продолжительность : 30 с.
Вид битрейта : Переменный
Битрейт : 7928 Кбит/сек
Ширина : 720 пикселей
Высота : 576 пикселей
Соотношение сторон : 4:3
Частота кадров : 25,000 кадров/сек
Стандарт вещания : PAL
Цветовое пространство : YUV
Субдискретизация насыщенности : 4:2:0
Битовая глубина : 8 бит
Тип развёртки : Прогрессивная
Метод сжатия : С потерями
Бит/(Пиксели*Кадры) : 0.765
Размер потока : 28,4 Мбайт (71%)
Основные цвета : BT.470-2 System B, BT.470-2 System G
Характеристики трансфера : BT.470-2 System B, BT.470-2 System G
Коэффициенты матрицы : BT.470-2 System B, BT.470-2 System G
Аудио
Идентификатор : 189 (0xBD)-128 (0x80)
Формат : AC-3
Формат/Информация : Audio Coding 3
Расширение режима : CM (complete main)
Параметр Endianness формата : Big
Режим смешивания : DVD-Video
Продолжительность : 40 с.
Вид битрейта : Постоянный
Битрейт : 256 Кбит/сек
Каналы : 2 канала
Расположение каналов : Front: L R
Частота : 48,0 КГц
Битовая глубина : 16 бит
Метод сжатия : С потерями
Размер потока : 1,22 Мбайт (3%)
Текст
Идентификатор : 189 (0xBD)-32 (0x20)
Формат : RLE
Формат/Информация : Run-length encoding
Режим смешивания : DVD-Video
Продолжительность : 192 мс.
Меню
Общее
Полное имя : E:\Convertirov_ BD_DVD\Slugebnij_roman\Probn_proverka\Служебный_роман\DVD5_1s\VIDEO_TS\VTS_01_1.VOB
Формат : MPEG-PS
Размер файла : 1000 Мбайт
Продолжительность : 17 м.
Режим общего битрейта : Переменный
Общий поток : 8146 Кбит/сек
Видео
Идентификатор : 224 (0xE0)
Формат : MPEG Video
Версия формата : Version 2
Профиль формата : Main@Main
Параметр BVOP формата : Да
Параметр матрицы формата : Выборочная
Продолжительность : 17 м.
Вид битрейта : Переменный
Битрейт : 7536 Кбит/сек
Максимальный битрейт : 9350 Кбит/сек
Ширина : 720 пикселей
Высота : 576 пикселей
Соотношение сторон : 4:3
Частота кадров : 25,000 кадров/сек
Стандарт вещания : PAL
Цветовое пространство : YUV
Субдискретизация насыщенности : 4:2:0
Битовая глубина : 8 бит
Тип развёртки : Чересстрочная
Порядок развёртки : Верхнее поле первое
Метод сжатия : С потерями
Бит/(Пиксели*Кадры) : 0.727
Размер потока : 926 Мбайт (93%)
Аудио
Идентификатор : 189 (0xBD)-128 (0x80)
Формат : AC-3
Формат/Информация : Audio Coding 3
Расширение режима : CM (complete main)
Параметр Endianness формата : Big
Режим смешивания : DVD-Video
Продолжительность : 17 м.
Вид битрейта : Постоянный
Битрейт : 448 Кбит/сек
Каналы : 6 каналов
Расположение каналов : Front: L C R, Side: L R, LFE
Частота : 48,0 КГц
Битовая глубина : 16 бит
Метод сжатия : С потерями
Размер потока : 55,0 Мбайт (5%)
Текст
Идентификатор : 189 (0xBD)-32 (0x20)
Формат : RLE
Формат/Информация : Run-length encoding
Режим смешивания : DVD-Video
Меню
Общее
Полное имя : E:\Convertirov_ BD_DVD\Slugebnij_roman\Probn_proverka\Служебный_роман\DVD5_1s\VIDEO_TS\VTS_01_2.VOB
Формат : MPEG-PS
Размер файла : 1000 Мбайт
Продолжительность : 18 м.
Режим общего битрейта : Переменный
Общий поток : 7399 Кбит/сек
Видео
Идентификатор : 224 (0xE0)
Формат : MPEG Video
Версия формата : Version 2
Профиль формата : Main@Main
Параметр BVOP формата : Да
Параметр матрицы формата : Выборочная
Параметр GOP формата : M=3, N=15
Продолжительность : 18 м.
Вид битрейта : Переменный
Битрейт : 6804 Кбит/сек
Максимальный битрейт : 9350 Кбит/сек
Ширина : 720 пикселей
Высота : 576 пикселей
Соотношение сторон : 4:3
Частота кадров : 25,000 кадров/сек
Стандарт вещания : PAL
Цветовое пространство : YUV
Субдискретизация насыщенности : 4:2:0
Битовая глубина : 8 бит
Тип развёртки : Чересстрочная
Порядок развёртки : Верхнее поле первое
Метод сжатия : С потерями
Бит/(Пиксели*Кадры) : 0.656
Размер потока : 919 Мбайт (92%)
Аудио
Идентификатор : 189 (0xBD)-128 (0x80)
Формат : AC-3
Формат/Информация : Audio Coding 3
Расширение режима : CM (complete main)
Параметр Endianness формата : Big
Режим смешивания : DVD-Video
Продолжительность : 18 м.
Вид битрейта : Постоянный
Битрейт : 448 Кбит/сек
Каналы : 6 каналов
Расположение каналов : Front: L C R, Side: L R, LFE
Частота : 48,0 КГц
Битовая глубина : 16 бит
Метод сжатия : С потерями
Задержка видео : -280 мс.
Размер потока : 60,5 Мбайт (6%)
Текст
Идентификатор : 189 (0xBD)-32 (0x20)
Формат : RLE
Формат/Информация : Run-length encoding
Режим смешивания : DVD-Video
Продолжительность : 18 м.
Задержка видео : 1 с. 880 мс.
Меню
Общее
Полное имя : E:\Convertirov_ BD_DVD\Slugebnij_roman\Probn_proverka\Служебный_роман\DVD5_1s\VIDEO_TS\VTS_01_3.VOB
Формат : MPEG-PS
Размер файла : 1000 Мбайт
Продолжительность : 19 м.
Режим общего битрейта : Переменный
Общий поток : 7156 Кбит/сек
Видео
Идентификатор : 224 (0xE0)
Формат : MPEG Video
Версия формата : Version 2
Профиль формата : Main@Main
Параметр BVOP формата : Да
Параметр матрицы формата : Выборочная
Параметр GOP формата : M=3, N=15
Продолжительность : 19 м.
Вид битрейта : Переменный
Битрейт : 6566 Кбит/сек
Максимальный битрейт : 9350 Кбит/сек
Ширина : 720 пикселей
Высота : 576 пикселей
Соотношение сторон : 4:3
Частота кадров : 25,000 кадров/сек
Стандарт вещания : PAL
Цветовое пространство : YUV
Субдискретизация насыщенности : 4:2:0
Битовая глубина : 8 бит
Тип развёртки : Чересстрочная
Порядок развёртки : Верхнее поле первое
Метод сжатия : С потерями
Бит/(Пиксели*Кадры) : 0.633
Размер потока : 918 Мбайт (92%)
Аудио
Идентификатор : 189 (0xBD)-128 (0x80)
Формат : AC-3
Формат/Информация : Audio Coding 3
Расширение режима : CM (complete main)
Параметр Endianness формата : Big
Режим смешивания : DVD-Video
Продолжительность : 19 м.
Вид битрейта : Постоянный
Битрейт : 448 Кбит/сек
Каналы : 6 каналов
Расположение каналов : Front: L C R, Side: L R, LFE
Частота : 48,0 КГц
Битовая глубина : 16 бит
Метод сжатия : С потерями
Задержка видео : -328 мс.
Размер потока : 62,6 Мбайт (6%)
Текст
Идентификатор : 189 (0xBD)-32 (0x20)
Формат : RLE
Формат/Информация : Run-length encoding
Режим смешивания : DVD-Video
Продолжительность : 19 м.
Задержка видео : 3 с. 240 мс.
Меню
Общее
Полное имя : E:\Convertirov_ BD_DVD\Slugebnij_roman\Probn_proverka\Служебный_роман\DVD5_1s\VIDEO_TS\VTS_01_4.VOB
Формат : MPEG-PS
Размер файла : 1000 Мбайт
Продолжительность : 19 м.
Режим общего битрейта : Переменный
Общий поток : 7165 Кбит/сек
Видео
Идентификатор : 224 (0xE0)
Формат : MPEG Video
Версия формата : Version 2
Профиль формата : Main@Main
Параметр BVOP формата : Да
Параметр матрицы формата : Выборочная
Продолжительность : 19 м.
Вид битрейта : Переменный
Битрейт : 6574 Кбит/сек
Максимальный битрейт : 9350 Кбит/сек
Ширина : 720 пикселей
Высота : 576 пикселей
Соотношение сторон : 4:3
Частота кадров : 25,000 кадров/сек
Стандарт вещания : PAL
Цветовое пространство : YUV
Субдискретизация насыщенности : 4:2:0
Битовая глубина : 8 бит
Тип развёртки : Чересстрочная
Порядок развёртки : Верхнее поле первое
Метод сжатия : С потерями
Бит/(Пиксели*Кадры) : 0.634
Размер потока : 918 Мбайт (92%)
Аудио
Идентификатор : 189 (0xBD)-128 (0x80)
Формат : AC-3
Формат/Информация : Audio Coding 3
Расширение режима : CM (complete main)
Параметр Endianness формата : Big
Режим смешивания : DVD-Video
Продолжительность : 19 м.
Вид битрейта : Постоянный
Битрейт : 448 Кбит/сек
Каналы : 6 каналов
Расположение каналов : Front: L C R, Side: L R, LFE
Частота : 48,0 КГц
Битовая глубина : 16 бит
Метод сжатия : С потерями
Задержка видео : -304 мс.
Размер потока : 62,5 Мбайт (6%)
Текст
Идентификатор : 189 (0xBD)-32 (0x20)
Формат : RLE
Формат/Информация : Run-length encoding
Режим смешивания : DVD-Video
Продолжительность : 19 м.
Задержка видео : 2 с. 840 мс.
Меню
Общее
Полное имя : E:\Convertirov_ BD_DVD\Slugebnij_roman\Probn_proverka\Служебный_роман\DVD5_1s\VIDEO_TS\VTS_01_5.VOB
Формат : MPEG-PS
Размер файла : 384 Мбайт
Продолжительность : 8 м. 28 с.
Режим общего битрейта : Переменный
Общий поток : 6341 Кбит/сек
Видео
Идентификатор : 224 (0xE0)
Формат : MPEG Video
Версия формата : Version 2
Профиль формата : Main@Main
Параметр BVOP формата : Да
Параметр матрицы формата : Выборочная
Параметр GOP формата : M=3, N=15
Продолжительность : 8 м. 28 с.
Вид битрейта : Переменный
Битрейт : 5766 Кбит/сек
Максимальный битрейт : 9350 Кбит/сек
Ширина : 720 пикселей
Высота : 576 пикселей
Соотношение сторон : 4:3
Частота кадров : 25,000 кадров/сек
Стандарт вещания : PAL
Цветовое пространство : YUV
Субдискретизация насыщенности : 4:2:0
Битовая глубина : 8 бит
Тип развёртки : Чересстрочная
Порядок развёртки : Верхнее поле первое
Метод сжатия : С потерями
Бит/(Пиксели*Кадры) : 0.556
Размер потока : 349 Мбайт (91%)
Аудио
Идентификатор : 189 (0xBD)-128 (0x80)
Формат : AC-3
Формат/Информация : Audio Coding 3
Расширение режима : CM (complete main)
Параметр Endianness формата : Big
Режим смешивания : DVD-Video
Продолжительность : 8 м. 28 с.
Вид битрейта : Постоянный
Битрейт : 448 Кбит/сек
Каналы : 6 каналов
Расположение каналов : Front: L C R, Side: L R, LFE
Частота : 48,0 КГц
Битовая глубина : 16 бит
Метод сжатия : С потерями
Задержка видео : -304 мс.
Размер потока : 27,1 Мбайт (7%)
Текст
Идентификатор : 189 (0xBD)-32 (0x20)
Формат : RLE
Формат/Информация : Run-length encoding
Режим смешивания : DVD-Video
Продолжительность : 8 м. 17 с.
Задержка видео : 3 с. 640 мс.

MediaInfo Disk2

Общее
Полное имя : E:\Convertirov_ BD_DVD\Slugebnij_roman\Probn_proverka\Служебный_роман\DVD5_2s\VIDEO_TS\VIDEO_TS.BUP
Формат : DVD Video
Профиль формата : Menu
Размер файла : 12,0 Кбайт
Режим общего битрейта : Переменный
Видео
Идентификатор : 224 (0xE0)
Формат : MPEG Video
Версия формата : Version 2
Вид битрейта : Переменный
Ширина : 720 пикселей
Высота : 576 пикселей
Соотношение сторон : 4:3
Частота кадров : 25,000 кадров/сек
Стандарт вещания : PAL
Метод сжатия : С потерями
Общее
Полное имя : E:\Convertirov_ BD_DVD\Slugebnij_roman\Probn_proverka\Служебный_роман\DVD5_2s\VIDEO_TS\VIDEO_TS.IFO
Формат : DVD Video
Профиль формата : Menu
Размер файла : 12,0 Кбайт
Режим общего битрейта : Переменный
Видео
Идентификатор : 224 (0xE0)
Формат : MPEG Video
Версия формата : Version 2
Вид битрейта : Переменный
Ширина : 720 пикселей
Высота : 576 пикселей
Соотношение сторон : 4:3
Частота кадров : 25,000 кадров/сек
Стандарт вещания : PAL
Метод сжатия : С потерями
Общее
Полное имя : E:\Convertirov_ BD_DVD\Slugebnij_roman\Probn_proverka\Служебный_роман\DVD5_2s\VIDEO_TS\VIDEO_TS.VOB
Формат : MPEG-PS
Размер файла : 48,0 Кбайт
Продолжительность : 40 мс.
Режим общего битрейта : Переменный
Общий поток : 9830 Кбит/сек
Видео
Идентификатор : 224 (0xE0)
Формат : MPEG Video
Версия формата : Version 2
Профиль формата : Main@Main
Параметр BVOP формата : Нет
Параметр матрицы формата : По умолчанию
Продолжительность : 40 мс.
Вид битрейта : Переменный
Максимальный битрейт : 9000 Кбит/сек
Ширина : 720 пикселей
Высота : 576 пикселей
Соотношение сторон : 4:3
Частота кадров : 25,000 кадров/сек
Стандарт вещания : PAL
Цветовое пространство : YUV
Субдискретизация насыщенности : 4:2:0
Битовая глубина : 8 бит
Тип развёртки : Прогрессивная
Порядок развёртки : Верхнее поле первое
Метод сжатия : С потерями
Основные цвета : BT.470-2 System B, BT.470-2 System G
Характеристики трансфера : BT.470-2 System B, BT.470-2 System G
Коэффициенты матрицы : BT.470-2 System B, BT.470-2 System G
Меню
Общее
Полное имя : E:\Convertirov_ BD_DVD\Slugebnij_roman\Probn_proverka\Служебный_роман\DVD5_2s\VIDEO_TS\VTS_01_0.BUP
Формат : DVD Video
Профиль формата : Program
Размер файла : 50,0 Кбайт
Продолжительность : 1 ч. 6 м.
Режим общего битрейта : Переменный
Общий поток : 102 бит/сек
Видео
Идентификатор : 224 (0xE0)
Формат : MPEG Video
Версия формата : Version 2
Продолжительность : 1 ч. 6 м.
Вид битрейта : Переменный
Ширина : 720 пикселей
Высота : 576 пикселей
Соотношение сторон : 4:3
Частота кадров : 25,000 кадров/сек
Стандарт вещания : PAL
Метод сжатия : С потерями
Аудио
Идентификатор : 128 (0x80)
Формат : AC-3
Формат/Информация : Audio Coding 3
Продолжительность : 1 ч. 6 м.
Каналы : 6 каналов
Частота : 48,0 КГц
Метод сжатия : С потерями
Язык : Russian
Текст
Идентификатор : 32 (0x20)
Формат : RLE
Формат/Информация : Run-length encoding
Битовая глубина : 2 бит
Язык : Russian
Меню
Продолжительность : 1 ч. 6 м.
00:00:00.000 : Chapter 1
00:05:24.960 : Chapter 2
00:11:29.320 : Chapter 3
00:16:27.680 : Chapter 4
00:22:08.440 : Chapter 5
00:27:31.680 : Chapter 6
00:33:18.000 : Chapter 7
00:39:25.240 : Chapter 8
00:44:39.560 : Chapter 9
00:49:57.200 : Chapter 10
00:55:44.520 : Chapter 11
01:01:33.320 : Chapter 12
List (Audio) : 0
List (Subtitles 4/3) : 0
List (Subtitles Wide) : 0
List (Subtitles Letterbox) : 0
List (Subtitles Pan&Scan) : 0
Общее
Полное имя : E:\Convertirov_ BD_DVD\Slugebnij_roman\Probn_proverka\Служебный_роман\DVD5_2s\VIDEO_TS\VTS_01_0.IFO
Формат : DVD Video
Профиль формата : Program
Размер файла : 50,0 Кбайт
Продолжительность : 1 ч. 6 м.
Режим общего битрейта : Переменный
Общий поток : 102 бит/сек
Видео
Идентификатор : 224 (0xE0)
Формат : MPEG Video
Версия формата : Version 2
Продолжительность : 1 ч. 6 м.
Вид битрейта : Переменный
Ширина : 720 пикселей
Высота : 576 пикселей
Соотношение сторон : 4:3
Частота кадров : 25,000 кадров/сек
Стандарт вещания : PAL
Метод сжатия : С потерями
Аудио
Идентификатор : 128 (0x80)
Формат : AC-3
Формат/Информация : Audio Coding 3
Продолжительность : 1 ч. 6 м.
Каналы : 6 каналов
Частота : 48,0 КГц
Метод сжатия : С потерями
Язык : Russian
Текст
Идентификатор : 32 (0x20)
Формат : RLE
Формат/Информация : Run-length encoding
Битовая глубина : 2 бит
Язык : Russian
Меню
Продолжительность : 1 ч. 6 м.
00:00:00.000 : Chapter 1
00:05:24.960 : Chapter 2
00:11:29.320 : Chapter 3
00:16:27.680 : Chapter 4
00:22:08.440 : Chapter 5
00:27:31.680 : Chapter 6
00:33:18.000 : Chapter 7
00:39:25.240 : Chapter 8
00:44:39.560 : Chapter 9
00:49:57.200 : Chapter 10
00:55:44.520 : Chapter 11
01:01:33.320 : Chapter 12
List (Audio) : 0
List (Subtitles 4/3) : 0
List (Subtitles Wide) : 0
List (Subtitles Letterbox) : 0
List (Subtitles Pan&Scan) : 0
Общее
Полное имя : E:\Convertirov_ BD_DVD\Slugebnij_roman\Probn_proverka\Служебный_роман\DVD5_2s\VIDEO_TS\VTS_01_0.VOB
Формат : MPEG-PS
Размер файла : 38,3 Мбайт
Продолжительность : 40 с.
Режим общего битрейта : Переменный
Общий поток : 8023 Кбит/сек
Видео
Идентификатор : 224 (0xE0)
Формат : MPEG Video
Версия формата : Version 2
Профиль формата : Main@Main
Параметр BVOP формата : Да
Параметр матрицы формата : По умолчанию
Продолжительность : 30 с.
Вид битрейта : Переменный
Битрейт : 7607 Кбит/сек
Ширина : 720 пикселей
Высота : 576 пикселей
Соотношение сторон : 4:3
Частота кадров : 25,000 кадров/сек
Стандарт вещания : PAL
Цветовое пространство : YUV
Субдискретизация насыщенности : 4:2:0
Битовая глубина : 8 бит
Тип развёртки : Прогрессивная
Метод сжатия : С потерями
Бит/(Пиксели*Кадры) : 0.734
Размер потока : 27,2 Мбайт (71%)
Основные цвета : BT.470-2 System B, BT.470-2 System G
Характеристики трансфера : BT.470-2 System B, BT.470-2 System G
Коэффициенты матрицы : BT.470-2 System B, BT.470-2 System G
Аудио
Идентификатор : 189 (0xBD)-128 (0x80)
Формат : AC-3
Формат/Информация : Audio Coding 3
Расширение режима : CM (complete main)
Параметр Endianness формата : Big
Режим смешивания : DVD-Video
Продолжительность : 40 с.
Вид битрейта : Постоянный
Битрейт : 256 Кбит/сек
Каналы : 2 канала
Расположение каналов : Front: L R
Частота : 48,0 КГц
Битовая глубина : 16 бит
Метод сжатия : С потерями
Размер потока : 1,22 Мбайт (3%)
Текст
Идентификатор : 189 (0xBD)-32 (0x20)
Формат : RLE
Формат/Информация : Run-length encoding
Режим смешивания : DVD-Video
Продолжительность : 192 мс.
Меню
Общее
Полное имя : E:\Convertirov_ BD_DVD\Slugebnij_roman\Probn_proverka\Служебный_роман\DVD5_2s\VIDEO_TS\VTS_01_1.VOB
Формат : MPEG-PS
Размер файла : 1000 Мбайт
Продолжительность : 15 м.
Режим общего битрейта : Переменный
Общий поток : 9191 Кбит/сек
Видео
Идентификатор : 224 (0xE0)
Формат : MPEG Video
Версия формата : Version 2
Профиль формата : Main@Main
Параметр BVOP формата : Да
Параметр матрицы формата : Выборочная
Продолжительность : 15 м.
Вид битрейта : Переменный
Битрейт : 8560 Кбит/сек
Максимальный битрейт : 9300 Кбит/сек
Ширина : 720 пикселей
Высота : 576 пикселей
Соотношение сторон : 4:3
Частота кадров : 25,000 кадров/сек
Стандарт вещания : PAL
Цветовое пространство : YUV
Субдискретизация насыщенности : 4:2:0
Битовая глубина : 8 бит
Тип развёртки : Чересстрочная
Порядок развёртки : Верхнее поле первое
Метод сжатия : С потерями
Бит/(Пиксели*Кадры) : 0.826
Размер потока : 931 Мбайт (93%)
Аудио
Идентификатор : 189 (0xBD)-128 (0x80)
Формат : AC-3
Формат/Информация : Audio Coding 3
Расширение режима : CM (complete main)
Параметр Endianness формата : Big
Режим смешивания : DVD-Video
Продолжительность : 15 м.
Вид битрейта : Постоянный
Битрейт : 448 Кбит/сек
Каналы : 6 каналов
Расположение каналов : Front: L C R, Side: L R, LFE
Частота : 48,0 КГц
Битовая глубина : 16 бит
Метод сжатия : С потерями
Размер потока : 48,7 Мбайт (5%)
Меню
Общее
Полное имя : E:\Convertirov_ BD_DVD\Slugebnij_roman\Probn_proverka\Служебный_роман\DVD5_2s\VIDEO_TS\VTS_01_2.VOB
Формат : MPEG-PS
Размер файла : 1000 Мбайт
Продолжительность : 15 м.
Режим общего битрейта : Переменный
Общий поток : 9097 Кбит/сек
Видео
Идентификатор : 224 (0xE0)
Формат : MPEG Video
Версия формата : Version 2
Профиль формата : Main@Main
Параметр BVOP формата : Да
Параметр матрицы формата : Выборочная
Параметр GOP формата : M=3, N=15
Продолжительность : 15 м.
Вид битрейта : Переменный
Битрейт : 8468 Кбит/сек
Максимальный битрейт : 9300 Кбит/сек
Ширина : 720 пикселей
Высота : 576 пикселей
Соотношение сторон : 4:3
Частота кадров : 25,000 кадров/сек
Стандарт вещания : PAL
Цветовое пространство : YUV
Субдискретизация насыщенности : 4:2:0
Битовая глубина : 8 бит
Тип развёртки : Чересстрочная
Порядок развёртки : Верхнее поле первое
Метод сжатия : С потерями
Бит/(Пиксели*Кадры) : 0.817
Размер потока : 931 Мбайт (93%)
Аудио
Идентификатор : 189 (0xBD)-128 (0x80)
Формат : AC-3
Формат/Информация : Audio Coding 3
Расширение режима : CM (complete main)
Параметр Endianness формата : Big
Режим смешивания : DVD-Video
Продолжительность : 15 м.
Вид битрейта : Постоянный
Битрейт : 448 Кбит/сек
Каналы : 6 каналов
Расположение каналов : Front: L C R, Side: L R, LFE
Частота : 48,0 КГц
Битовая глубина : 16 бит
Метод сжатия : С потерями
Задержка видео : -272 мс.
Размер потока : 49,3 Мбайт (5%)
Текст
Идентификатор : 189 (0xBD)-32 (0x20)
Формат : RLE
Формат/Информация : Run-length encoding
Режим смешивания : DVD-Video
Продолжительность : 15 м.
Задержка видео : 200 мс.
Меню
Общее
Полное имя : E:\Convertirov_ BD_DVD\Slugebnij_roman\Probn_proverka\Служебный_роман\DVD5_2s\VIDEO_TS\VTS_01_3.VOB
Формат : MPEG-PS
Размер файла : 1000 Мбайт
Продолжительность : 15 м.
Режим общего битрейта : Переменный
Общий поток : 8997 Кбит/сек
Видео
Идентификатор : 224 (0xE0)
Формат : MPEG Video
Версия формата : Version 2
Профиль формата : Main@Main
Параметр BVOP формата : Да
Параметр матрицы формата : Выборочная
Параметр GOP формата : M=3, N=15
Продолжительность : 15 м.
Вид битрейта : Переменный
Битрейт : 8370 Кбит/сек
Максимальный битрейт : 9300 Кбит/сек
Ширина : 720 пикселей
Высота : 576 пикселей
Соотношение сторон : 4:3
Частота кадров : 25,000 кадров/сек
Стандарт вещания : PAL
Цветовое пространство : YUV
Субдискретизация насыщенности : 4:2:0
Битовая глубина : 8 бит
Тип развёртки : Чересстрочная
Порядок развёртки : Верхнее поле первое
Метод сжатия : С потерями
Бит/(Пиксели*Кадры) : 0.807
Размер потока : 930 Мбайт (93%)
Аудио
Идентификатор : 189 (0xBD)-128 (0x80)
Формат : AC-3
Формат/Информация : Audio Coding 3
Расширение режима : CM (complete main)
Параметр Endianness формата : Big
Режим смешивания : DVD-Video
Продолжительность : 15 м.
Вид битрейта : Постоянный
Битрейт : 448 Кбит/сек
Каналы : 6 каналов
Расположение каналов : Front: L C R, Side: L R, LFE
Частота : 48,0 КГц
Битовая глубина : 16 бит
Метод сжатия : С потерями
Задержка видео : -256 мс.
Размер потока : 49,8 Мбайт (5%)
Меню
Общее
Полное имя : E:\Convertirov_ BD_DVD\Slugebnij_roman\Probn_proverka\Служебный_роман\DVD5_2s\VIDEO_TS\VTS_01_4.VOB
Формат : MPEG-PS
Размер файла : 1000 Мбайт
Продолжительность : 15 м.
Режим общего битрейта : Переменный
Общий поток : 8913 Кбит/сек
Видео
Идентификатор : 224 (0xE0)
Формат : MPEG Video
Версия формата : Version 2
Профиль формата : Main@Main
Параметр BVOP формата : Да
Параметр матрицы формата : Выборочная
Продолжительность : 15 м.
Вид битрейта : Переменный
Битрейт : 8288 Кбит/сек
Максимальный битрейт : 9300 Кбит/сек
Ширина : 720 пикселей
Высота : 576 пикселей
Соотношение сторон : 4:3
Частота кадров : 25,000 кадров/сек
Стандарт вещания : PAL
Цветовое пространство : YUV
Субдискретизация насыщенности : 4:2:0
Битовая глубина : 8 бит
Тип развёртки : Чересстрочная
Порядок развёртки : Верхнее поле первое
Метод сжатия : С потерями
Бит/(Пиксели*Кадры) : 0.799
Размер потока : 930 Мбайт (93%)
Аудио
Идентификатор : 189 (0xBD)-128 (0x80)
Формат : AC-3
Формат/Информация : Audio Coding 3
Расширение режима : CM (complete main)
Параметр Endianness формата : Big
Режим смешивания : DVD-Video
Продолжительность : 15 м.
Вид битрейта : Постоянный
Битрейт : 448 Кбит/сек
Каналы : 6 каналов
Расположение каналов : Front: L C R, Side: L R, LFE
Частота : 48,0 КГц
Битовая глубина : 16 бит
Метод сжатия : С потерями
Задержка видео : -280 мс.
Размер потока : 50,3 Мбайт (5%)
Текст
Идентификатор : 189 (0xBD)-32 (0x20)
Формат : RLE
Формат/Информация : Run-length encoding
Режим смешивания : DVD-Video
Продолжительность : 15 м.
Задержка видео : 3 с. 720 мс.
Меню
Общее
Полное имя : E:\Convertirov_ BD_DVD\Slugebnij_roman\Probn_proverka\Служебный_роман\DVD5_2s\VIDEO_TS\VTS_01_5.VOB
Формат : MPEG-PS
Размер файла : 339 Мбайт
Продолжительность : 4 м. 50 с.
Режим общего битрейта : Переменный
Общий поток : 9770 Кбит/сек
Видео
Идентификатор : 224 (0xE0)
Формат : MPEG Video
Версия формата : Version 2
Профиль формата : Main@Main
Параметр BVOP формата : Да
Параметр матрицы формата : Выборочная
Продолжительность : 4 м. 50 с.
Вид битрейта : Переменный
Битрейт : 9128 Кбит/сек
Максимальный битрейт : 9300 Кбит/сек
Ширина : 720 пикселей
Высота : 576 пикселей
Соотношение сторон : 4:3
Частота кадров : 25,000 кадров/сек
Стандарт вещания : PAL
Цветовое пространство : YUV
Субдискретизация насыщенности : 4:2:0
Битовая глубина : 8 бит
Тип развёртки : Чересстрочная
Порядок развёртки : Верхнее поле первое
Метод сжатия : С потерями
Бит/(Пиксели*Кадры) : 0.880
Размер потока : 316 Мбайт (93%)
Аудио
Идентификатор : 189 (0xBD)-128 (0x80)
Формат : AC-3
Формат/Информация : Audio Coding 3
Расширение режима : CM (complete main)
Параметр Endianness формата : Big
Режим смешивания : DVD-Video
Продолжительность : 4 м. 50 с.
Вид битрейта : Постоянный
Битрейт : 448 Кбит/сек
Каналы : 6 каналов
Расположение каналов : Front: L C R, Side: L R, LFE
Частота : 48,0 КГц
Битовая глубина : 16 бит
Метод сжатия : С потерями
Задержка видео : -296 мс.
Размер потока : 15,5 Мбайт (5%)
Текст
Идентификатор : 189 (0xBD)-32 (0x20)
Формат : RLE
Формат/Информация : Run-length encoding
Режим смешивания : DVD-Video
Задержка видео : 1 с. 40 мс.

Используемый софт

Видео
Canopus ProCoder - конвертация видео
AviSynth - обработка видео
DGDecodeNV - индексирование
Программы для разборки ремукса
tsMuxeR - разборка Blu-Ray
Работа со звуком
TranzcodeGUI - извлечение WAV
Sonic Foundry Soft Encode - конвертация из формата WAV в AC3
Работа с меню и реавторинг
DVD-lab PRO 2 - реавторинг диска
MuxMan - проверка соответствия стандарту DVD(не завышен ли битрейт диска)
Adobe Photoshop - редактирование меню
Скрипт disk1LoadPlugin("C:\Program Files\Progr_convert_BD_DVD\DGDecodeNV\DGDecodeNV.dll")
DGSource("E:\Convertirov_ BD_DVD\Slugebnij_roman\temp\DGIndexNV\1_ser\Slugebnij_roman_1_ser.dgi") #если в исходнике отсутствуют артефакты
LoadPlugin("C:\Program Files\Progr_convert_BD_DVD\AutoYUY2\AutoYUY2.dll") #более медленный, но качественный аналог ConvertToYUY2()
AutoYUY2()
LoadPlugin("C:\Program Files\Progr_convert_BD_DVD\ColorMatrix\ColorMatrix.dll")
ColorMatrix(mode="Rec.709->Rec.601", inputFR=false, clamp=0) #корректировка цветовой шкалы, если проверка показывает 16-235
Crop(250,0,-250,0) #Обрезаем по бокам полосы
Lanczos4Resize(720, 576) #Уменьшаем до разрешения ПАЛа
AssumeFPS(25) #Частота кадров ПАЛа

Скрипт disk2

LoadPlugin("C:\Program Files\Progr_convert_BD_DVD\DGDecodeNV\DGDecodeNV.dll")
DGSource("E:\Convertirov_ BD_DVD\Slugebnij_roman\temp\DGIndexNV\2_ser\Slugebnij_roman_2_ser.dgi") #если в исходнике отсутствуют артефакты
LoadPlugin("C:\Program Files\Progr_convert_BD_DVD\AutoYUY2\AutoYUY2.dll") #более медленный, но качественный аналог ConvertToYUY2()
AutoYUY2()
LoadPlugin("C:\Program Files\Progr_convert_BD_DVD\ColorMatrix\ColorMatrix.dll")
ColorMatrix(mode="Rec.709->Rec.601", inputFR=false, clamp=0) #корректировка цветовой шкалы, если проверка показывает 16-235
Crop(250,0,-250,0) #Обрезаем по бокам полосы
Lanczos4Resize(720, 576) #Уменьшаем до разрешения ПАЛа
AssumeFPS(25) #Частота кадров ПАЛа

Скриншоты программ и настроек

Скриншоты меню

Скриншоты

1 серия

2 серия
Фильм записан на диск Verbatim DVD+RW программой ImgBurn по инструкции.
Работоспособность проверена на стационарном плеере SONY DVP-NS330 и рекордере BBK DW 9955K.
[Профиль] [ЛС]
Кто просматривает тему:

Форум Тема Автор Размер
Документальные HD Рождество Христово. Прямая трансляция из Храма Христа Спасителя [2015, Богослужение, HDTV 1080i] TorrentFilm 9.64 GB
Фильмы (HD Rips | 720p, 1080p) Служебный роман (1977) BDRip 1080p от FREEISLAND sergej644 7.95 GB
Фильмы (HD DVD, Blu-ray и BDRemux) Служебный роман (Эльдар Рязанов) [1977, СССР, мелодрама, комедия, BDRip 1080p] Original Rus + Sub Rus painkiller 15 GB
Фильмы (HD Rips | 720p, 1080p) Служебный роман (Эльдар Рязанов) [1977, СССР, мелодрама, комедия, Blu-ray disc 1080p] original rus TorrentFilm 36.25 GB
Кино СССР Служебный роман (Эльдар Рязанов)[1977, мелодрама, комедия, BDRip] sergej644 2.9 GB
Фильмы (HD DVD, Blu-ray и BDRemux) Служебный роман (Эльдар Рязанов)[1977, Мелодрама, Комедия, BDRip] [1080p] [hand made 60fps] sergej644 25.85 GB
Фильмы (HD DVD, Blu-ray и BDRemux) Служебный роман. Наше время (Сарик Андреасян) [2011 г., мелодрама, комедия, Blu-ray disc 1080p] painkiller 22.37 GB
Фильмы (HD Rips | 720p, 1080p) Служебный роман. Наше время (Сарик Андреасян) [2011, Россия, Мелодрама, комедия, BDRip 720p] Sub Rus TorrentFilm 3.56 GB
Показать сообщения:    

Текущее время: Сегодня 20:57

Часовой пояс: GMT



Вы не можете начинать темы
Вы не можете отвечать на сообщения
Вы не можете редактировать свои сообщения
Вы не можете удалять свои сообщения
Вы не можете голосовать в опросах
Вы не можете прикреплять файлы к сообщениям
Вы не можете скачивать файлы