Служебный роман (1977) BDRip 1080p от FREEISLAND

 
Автор Сообщение

sergej644 ®

Пол:

Стаж: 4 года 11 месяцев

Сообщений: 6041

Откуда: Soviet Union



Награды: Нет

Торрент-статистика

Создавать темы 27-Янв-2015 04:49

[Цитировать]

Информация о фильме
Название: Служебный роман
Год выхода: 1977
Жанр: мелодрама, комедия
Режиссер: Эльдар Рязанов
В ролях:

Андрей Мягков (Анатолий Ефремович Новосельцев), Алиса Фрейндлих (Людмила Прокофьевна Калугина (Мымра)), Светлана Немоляева (Ольга Петровна Рыжова), Олег Басилашвили (Юрий Григорьевич Самохвалов), Лия Ахеджакова (секретарша Верочка), Георгий Бурков (завхоз), Зоя Исаева (сотрудница статистического учреждения), Людмила Иванова (общественница Шурочка), Петр Щербаков (Пётр Иванович Бубликов), Мария Виноградова (член инвентаризационной комиссии), Людмила Иванова (член инвентаризационной комиссии), Вера Бурлакова (член инвентаризационной комиссии)
О фильме:
Анатолий Ефремович Новосельцев, рядовой служащий одного статистического управления - человек робкий и застенчивый. Для него неплохо бы получить вакантное место зав. отделом, но он не знает как подступиться к этому делу. Старый приятель Самохвалов советует ему приударить за Людмилой Прокопьевной Калугиной - сухарем в юбке и директором заведения...

Страна: СССР
Студия: Мосфильм
Продолжительность: 02:36:40
Перевод: не требуется
Файл
Кодек: H.264
Качество: BDRip 1080p
Видео: AVC, 1420x1080 (4:3), 6816 kbps, 23,976 fps, 0,185 bpp
Звук: русский / AC3 / 5.1 / 48 kHz / 448 kbps / 16 bit
Субтитры: Russian (srt)

х264

x264 [info]: frame I:1448 Avg QP:17.84 size:152478
x264 [info]: frame P:43801 Avg QP:19.34 size: 79077
x264 [info]: frame B:180132 Avg QP:21.42 size: 24245

MI:

Общее
Уникальный идентификатор : 211755413183928011286414766812139985138 (0x9F4E9BEEE0250B73B66214F620D198F2)
Полное имя : E:торрентСлужебный роман (1977)BDRip-F.HD.mkv
Формат : Matroska
Версия формата : Version 2
Размер файла : 7,95 Гбайт
Продолжительность : 2 ч. 36 м.
Общий поток : 7267 Кбит/сек
Дата кодирования : UTC 2012-08-29 11:01:16
Программа кодирования : mkvmerge v5.4.0 ('Piper') built on Mar 10 2012 13:34:39
Библиотека кодирования : libebml v1.2.3 + libmatroska v1.3.0
Видео
Идентификатор : 1
Формат : AVC
Формат/Информация : Advanced Video Codec
Профиль формата : High@L4.1
Параметр CABAC формата : Да
Параметр ReFrames формата : 5 кадров
Идентификатор кодека : V_MPEG4/ISO/AVC
Продолжительность : 2 ч. 36 м.
Битрейт : 6816 Кбит/сек
Ширина : 1420 пикселей
Высота : 1080 пикселей
Соотношение сторон : 4:3
Режим частоты кадров : Постоянный
Частота кадров : 23,976 кадра/сек
Цветовое пространство : YUV
Субдискретизация насыщенности : 4:2:0
Битовая глубина : 8 бит
Тип развёртки : Прогрессивная
Бит/(Пиксели*Кадры) : 0.185
Размер потока : 7,30 Гбайт (92%)
Библиотека кодирования : x264 core 125 r2208 d9d2288
Настройки программы : cabac=1 / ref=5 / deblock=1:0:0 / analyse=0x3:0x113 / me=umh / subme=10 / psy=1 / psy_rd=1.00:0.15 / mixed_ref=1 / me_range=32 / chroma_me=1 / trellis=2 / 8x8dct=1 / cqm=0 / deadzone=21,11 / fast_pskip=0 / chroma_qp_offset=1 / threads=6 / lookahead_threads=1 / sliced_threads=0 / nr=0 / decimate=1 / interlaced=0 / bluray_compat=0 / constrained_intra=0 / bframes=7 / b_pyramid=2 / b_adapt=2 / b_bias=0 / direct=3 / weightb=1 / open_gop=0 / weightp=2 / keyint=240 / keyint_min=23 / scenecut=40 / intra_refresh=0 / rc=2pass / mbtree=0 / bitrate=6816 / ratetol=1.0 / qcomp=0.75 / qpmin=10 / qpmax=51 / qpstep=4 / cplxblur=20.0 / qblur=0.5 / ip_ratio=1.40 / pb_ratio=1.30 / aq=2:0.75
Язык : English
Default : Да
Forced : Нет
Основные цвета : BT.709
Характеристики трансфера : BT.709
Коэффициенты матрицы : BT.709
Аудио
Идентификатор : 2
Формат : AC-3
Формат/Информация : Audio Coding 3
Расширение режима : CM (complete main)
Параметр Endianness формата : Big
Идентификатор кодека : A_AC3
Продолжительность : 2 ч. 36 м.
Вид битрейта : Постоянный
Битрейт : 448 Кбит/сек
Каналы : 6 каналов
Расположение каналов : Front: L C R, Side: L R, LFE
Частота : 48,0 КГц
Битовая глубина : 16 бит
Метод сжатия : С потерями
Размер потока : 502 Мбайт (6%)
Язык : Russian
Default : Да
Forced : Нет
Текст
Идентификатор : 3
Формат : UTF-8
Идентификатор кодека : S_TEXT/UTF8
Идентификатор кодека/Информация : UTF-8 Plain Text
Язык : Russian
Default : Нет
Forced : Нет
Меню
00:00:00.000 : en:1 СЕРИЯ
00:11:41.867 : en:Самохвалов
00:17:11.697 : en:Старые знакомые
00:20:56.505 : en:Неудачная протекция
00:26:32.799 : en:Вечеринка
00:29:37.609 : en:Коктейль
00:35:56.237 : en:Вторая попытка
00:40:04.860 : en:Скандал
00:43:40.284 : en:Утро
00:48:50.844 : en:Примирение
00:59:37.657 : en:После работы
01:03:18.252 : en:В кабинете начальника
01:08:47.456 : en:"У природы нет плохой погоды"
01:12:09.825 : en:Людмила Прокофьевна и Верочка
01:19:24.885 : en:Сцена с лошадью
01:25:42.095 : en:Сплетни
01:27:09.724 : en:2 СЕРИЯ
01:38:29.069 : en:Телефонный разговор
01:44:40.774 : en:Деликатное дело
01:49:47.205 : en:Пощечина
01:53:18.917 : en:Свидание
02:02:57.828 : en:Пролитое вино
02:09:21.086 : en:Рыжова и Самохвалов
02:14:21.470 : en:Преображение
02:18:54.909 : en:Месть Самохвалова
02:23:25.430 : en:Размолвка
02:28:57.094 : en:Заявление об увольнении
02:33:28.490 : en:Финал

Скриншоты


--
[Профиль] [ЛС]
Кто просматривает тему:

Форум Тема Автор Размер
Документальные HD Рождество Христово. Прямая трансляция из Храма Христа Спасителя [2015, Богослужение, HDTV 1080i] TorrentFilm 9.64 GB
Фильмы (HD DVD, Blu-ray и BDRemux) Служебный роман (Эльдар Рязанов) [1977, СССР, мелодрама, комедия, BDRip 1080p] Original Rus + Sub Rus painkiller 15 GB
Фильмы (DVD 5/9) Служебный роман (Эльдар Рязанов) [1977, СССР, мелодрама, комедия, Blu ray > 2 x DVD5 (Custom)] Sub Rus + Original Rus TorrentFilm 8.6 GB
Фильмы (HD Rips | 720p, 1080p) Служебный роман (Эльдар Рязанов) [1977, СССР, мелодрама, комедия, Blu-ray disc 1080p] original rus TorrentFilm 36.25 GB
Кино СССР Служебный роман (Эльдар Рязанов)[1977, мелодрама, комедия, BDRip] sergej644 2.9 GB
Фильмы (HD DVD, Blu-ray и BDRemux) Служебный роман (Эльдар Рязанов)[1977, Мелодрама, Комедия, BDRip] [1080p] [hand made 60fps] sergej644 25.85 GB
Фильмы (HD DVD, Blu-ray и BDRemux) Служебный роман. Наше время (Сарик Андреасян) [2011 г., мелодрама, комедия, Blu-ray disc 1080p] painkiller 22.37 GB
Фильмы (HD Rips | 720p, 1080p) Служебный роман. Наше время (Сарик Андреасян) [2011, Россия, Мелодрама, комедия, BDRip 720p] Sub Rus TorrentFilm 3.56 GB
Показать сообщения:    

Текущее время: Сегодня 12:52

Часовой пояс: GMT



Вы не можете начинать темы
Вы не можете отвечать на сообщения
Вы не можете редактировать свои сообщения
Вы не можете удалять свои сообщения
Вы не можете голосовать в опросах
Вы не можете прикреплять файлы к сообщениям
Вы не можете скачивать файлы