Служебный роман (Эльдар Рязанов) [1977, СССР, мелодрама, комедия, BDRip 1080p] Original Rus + Sub Rus

 
Автор Сообщение

painkiller ®

Стаж: 2 года 3 месяца

Сообщений: 582



Награды: Нет

Торрент-статистика

Создавать темы 14-Авг-2014 09:21

[Цитировать]

Служебный роман
Страна: СССР
Жанр: мелодрама, комедия
Год выпуска: 1977
Продолжительность: 02:36:40
Режиссер: Эльдар Рязанов
В ролях: Андрей Мягков, Алиса Фрейндлих, Светлана Немоляева, Олег Басилашвили, Лия Ахеджакова, Георгий Бурков, Зоя Исаева, Людмила Иванова, Петр Щербаков и др.
Описание: Анатолий Ефремович Новосельцев, рядовой служащий одного статистического управления - человек робкий и застенчивый. Для него неплохо бы получить вакантное место зав. отделом, но он не знает как подступиться к этому делу. Старый приятель Самохвалов советует ему приударить за Людмилой Прокопьевной Калугиной - сухарем в юбке и директором заведения...
Доп. информация:

русские субтитры были взяты с dvd от КП и подогнаны под bd.
СЭМПЛ
Тип релиза: BDRip 1080p
Контейнер: MKV
Видео: 1420x1080p, 23,976 fps, x264, 12000 kbps
Аудио:
1. Русский DTS 5.1, 48 khz, 1536 kbps
2. Русский AC3 1.0, 48 khz, 192 kbps
Cубтитры: русские (SRT)
Навигация по главам: есть, с названиями
Скриншоты:

x264 log

avs [info]: 1420x1080p 1:1 @ 24000/1001 fps (cfr)
x264 [info]: using SAR=1/1
x264 [info]: using cpu capabilities: MMX2 SSE2Fast SSSE3 FastShuffle SSE4.1 Cache64
x264 [info]: profile High, level 4.1
x264 [info]: frame I:1449 Avg QP:16.22 size:229206
x264 [info]: frame P:43795 Avg QP:18.67 size:126837
x264 [info]: frame B:180137 Avg QP:20.88 size: 45601
x264 [info]: consecutive B-frames: 1.0% 1.2% 5.2% 12.6% 14.0% 58.4% 7.4% 0.1%
x264 [info]: mb I I16..4: 11.8% 73.8% 14.4%
x264 [info]: mb P I16..4: 0.8% 28.4% 1.1% P16..4: 24.6% 33.1% 8.6% 3.0% 0.1% skip: 0.3%
x264 [info]: mb B I16..4: 0.0% 2.6% 0.0% B16..8: 36.9% 29.4% 5.2% direct: 7.2% skip:18.6% L0:39.2% L1:44.0% BI:16.8%
x264 [info]: 8x8 transform intra:93.0% inter:54.9%
x264 [info]: direct mvs spatial:99.7% temporal:0.3%
x264 [info]: coded y,uvDC,uvAC intra: 98.6% 90.9% 70.1% inter: 41.3% 34.7% 15.2%
x264 [info]: i16 v,h,dc,p: 6% 5% 17% 71%
x264 [info]: i8 v,h,dc,ddl,ddr,vr,hd,vl,hu: 12% 9% 10% 9% 12% 11% 12% 11% 13%
x264 [info]: i4 v,h,dc,ddl,ddr,vr,hd,vl,hu: 13% 10% 4% 8% 14% 13% 14% 11% 13%
x264 [info]: i8c dc,h,v,p: 45% 22% 17% 16%
x264 [info]: Weighted P-Frames: Y:7.5% UV:2.7%
x264 [info]: ref P L0: 51.4% 12.9% 21.8% 6.9% 6.4% 0.7% 0.0%
x264 [info]: ref B L0: 88.2% 9.3% 2.0% 0.6%
x264 [info]: ref B L1: 96.6% 3.4%
x264 [info]: kb/s:12000.87

MediaInfo

Общее
Уникальный идентификатор : 248840845091690416111848939778148376853 (0xBB3500E50A358C69B61DB051FA97A115)
Полное имя : D:\Sluzhebnyj.Roman.1977.BDRip.1080p.x264.2xRus.mkv
Формат : Matroska
Версия формата : Version 2
Размер файла : 15,0 Гбайт
Продолжительность : 2 ч. 36 м.
Общий поток : 13,7 Мбит/сек
Название фильма : Released by shurikello
Дата кодирования : UTC 2012-04-27 05:08:18
Программа кодирования : mkvmerge v5.5.0 ('Healer') built on Apr 6 2012 21:43:24
Библиотека кодирования : libebml v1.2.3 + libmatroska v1.3.0
Видео
Идентификатор : 1
Формат : AVC
Формат/Информация : Advanced Video Codec
Профиль формата : High@L4.1
Параметр CABAC формата : Да
Параметр ReFrames формата : 5 кадров
Идентификатор кодека : V_MPEG4/ISO/AVC
Продолжительность : 2 ч. 36 м.
Битрейт : 12,0 Мбит/сек
Ширина : 1420 пикселей
Высота : 1080 пикселей
Соотношение сторон : 4:3
Частота кадров : 23,976 кадра/сек
Цветовое пространство : YUV
Субдискретизация насыщенности : 4:2:0
Битовая глубина : 8 бит
Тип развёртки : Прогрессивная
Бит/(Пиксели*Кадры) : 0.326
Размер потока : 12,8 Гбайт (86%)
Библиотека кодирования : x264 core 122 r2184 5c85e0a
Настройки программы : cabac=1 / ref=5 / deblock=1:-3:-3 / analyse=0x3:0x133 / me=umh / subme=11 / psy=1 / psy_rd=1.05:0.10 / mixed_ref=1 / me_range=32 / chroma_me=1 / trellis=2 / 8x8dct=1 / cqm=0 / deadzone=21,11 / fast_pskip=0 / chroma_qp_offset=-3 / threads=3 / sliced_threads=0 / nr=0 / decimate=0 / interlaced=0 / bluray_compat=0 / constrained_intra=0 / bframes=7 / b_pyramid=2 / b_adapt=2 / b_bias=0 / direct=3 / weightb=1 / open_gop=0 / weightp=2 / keyint=240 / keyint_min=24 / scenecut=40 / intra_refresh=0 / rc=2pass / mbtree=0 / bitrate=12000 / ratetol=1.0 / qcomp=0.70 / qpmin=0 / qpmax=69 / qpstep=4 / cplxblur=20.0 / qblur=0.5 / ip_ratio=1.40 / pb_ratio=1.30 / aq=2:0.80
Язык : Russian
Default : Да
Forced : Нет
Аудио #1
Идентификатор : 2
Формат : DTS
Формат/Информация : Digital Theater Systems
Идентификатор кодека : A_DTS
Продолжительность : 2 ч. 36 м.
Вид битрейта : Постоянный
Битрейт : 1510 Кбит/сек
Каналы : 6 каналов
Расположение каналов : Front: L C R, Side: L R, LFE
Частота : 48,0 КГц
Битовая глубина : 24 бит
Метод сжатия : С потерями
Размер потока : 1,65 Гбайт (11%)
Заголовок : DTS 5.1, 1536 kbps
Язык : Russian
Default : Да
Forced : Нет
Аудио #2
Идентификатор : 3
Формат : AC-3
Формат/Информация : Audio Coding 3
Расширение режима : CM (complete main)
Параметр Endianness формата : Big
Идентификатор кодека : A_AC3
Продолжительность : 2 ч. 36 м.
Вид битрейта : Постоянный
Битрейт : 192 Кбит/сек
Каналы : 1 канал
Расположение каналов : Front: C
Частота : 48,0 КГц
Битовая глубина : 16 бит
Метод сжатия : С потерями
Размер потока : 215 Мбайт (1%)
Заголовок : AC3 1.0, 192 kbps
Язык : Russian
Default : Нет
Forced : Нет
Текст
Идентификатор : 4
Формат : UTF-8
Идентификатор кодека : S_TEXT/UTF8
Идентификатор кодека/Информация : UTF-8 Plain Text
Язык : Russian
Default : Нет
Forced : Нет
Меню
00:00:00.000 : en:1 СЕРИЯ
00:11:41.867 : en:Самохвалов
00:17:11.697 : en:Старые знакомые
00:20:56.505 : en:Неудачная протекция
00:26:32.799 : en:Вечеринка
00:29:37.609 : en:Коктейль
00:35:56.237 : en:Вторая попытка
00:40:04.860 : en:Скандал
00:43:40.284 : en:Утро
00:48:50.844 : en:Примирение
00:59:37.657 : en:После работы
01:03:18.252 : en:В кабинете начальника
01:08:47.456 : en:"У природы нет плохой погоды"
01:12:09.825 : en:Людмила Прокофьевна и Верочка
01:19:24.885 : en:Сцена с лошадью
01:25:42.095 : en:Сплетни
01:27:09.724 : en:2 СЕРИЯ
01:38:29.069 : en:Телефонный разговор
01:44:40.774 : en:Деликатное дело
01:49:47.205 : en:Пощечина
01:53:18.917 : en:Свидание
02:02:57.828 : en:Пролитое вино
02:09:21.086 : en:Рыжова и Самохвалов
02:14:21.470 : en:Преображение
02:18:54.909 : en:Месть Самохвалова
02:23:25.430 : en:Размолвка
02:28:57.094 : en:Заявление об увольнении
02:33:28.490 : en:Финал
[Профиль] [ЛС]
Кто просматривает тему:

Форум Тема Автор Размер
Документальные HD Рождество Христово. Прямая трансляция из Храма Христа Спасителя [2015, Богослужение, HDTV 1080i] TorrentFilm 9.64 GB
Фильмы (HD Rips | 720p, 1080p) Служебный роман (1977) BDRip 1080p от FREEISLAND sergej644 7.95 GB
Фильмы (DVD 5/9) Служебный роман (Эльдар Рязанов) [1977, СССР, мелодрама, комедия, Blu ray > 2 x DVD5 (Custom)] Sub Rus + Original Rus TorrentFilm 8.6 GB
Фильмы (HD Rips | 720p, 1080p) Служебный роман (Эльдар Рязанов) [1977, СССР, мелодрама, комедия, Blu-ray disc 1080p] original rus TorrentFilm 36.25 GB
Кино СССР Служебный роман (Эльдар Рязанов)[1977, мелодрама, комедия, BDRip] sergej644 2.9 GB
Фильмы (HD DVD, Blu-ray и BDRemux) Служебный роман (Эльдар Рязанов)[1977, Мелодрама, Комедия, BDRip] [1080p] [hand made 60fps] sergej644 25.85 GB
Фильмы (HD DVD, Blu-ray и BDRemux) Служебный роман. Наше время (Сарик Андреасян) [2011 г., мелодрама, комедия, Blu-ray disc 1080p] painkiller 22.37 GB
Фильмы (HD Rips | 720p, 1080p) Служебный роман. Наше время (Сарик Андреасян) [2011, Россия, Мелодрама, комедия, BDRip 720p] Sub Rus TorrentFilm 3.56 GB
Показать сообщения:    

Текущее время: Сегодня 12:33

Часовой пояс: GMT



Вы не можете начинать темы
Вы не можете отвечать на сообщения
Вы не можете редактировать свои сообщения
Вы не можете удалять свои сообщения
Вы не можете голосовать в опросах
Вы не можете прикреплять файлы к сообщениям
Вы не можете скачивать файлы