Служебный роман. Наше время (Сарик Андреасян) [2011, Россия, Мелодрама, комедия, BDRip 720p] Sub Rus

 
Автор Сообщение

TorrentFilm ®

Пол:

Стаж: 2 года

Сообщений: 7741



Награды: Нет

Торрент-статистика

Создавать темы 01-Янв-2016 00:06

[Цитировать]

Служебный роман. Наше времяСтрана: Россия
Жанр: Мелодрама, комедия
Год выпуска: 2011
Продолжительность: 01:31:03
Перевод: Не требуется
Cубтитры: русские
Режиссер: Сарик Андреасян
В ролях: Светлана Ходченкова, Владимир Зеленский, Марат Башаров, Анастасия Заворотнюк, Павел Воля, Дмитрий Хрусталев, Тимур Родригез, Алика Смехова, Иван Охлобыстин, Софья Хилькова
Описание: Ее зовут Людмила Калугина, она руководит крупным рейтинговым агентством, проводя жизнь в борьбе с конкурентами. Его — Анатолий Новосельцев, он работает финансовым аналитиком, а в свободное от работы время гоняет на мотоцикле и в одиночку воспитывает двоих детей: девочку и… еще одну девочку.
Она для него — начальница-мымра, он для нее — офисный планктон и законченный неудачник. Так и не узнали бы они ничего друг о друге, если бы не служебный роман…
Тип релиза: BDRip 720p Sample
Контейнер: MKV
Видео: 1280x544 at 23.976 fps, x264@L4.1, crf, ~3973 kbps avg
Аудио: 48 kHz, DTS, 3/2 (L,C,R,l,r) + LFE ch, ~1536.00 kbps avg
релиз by DEOSS77
Доп информация за русские субтитры большое СПАСИБО vinalord

MediaInfo

General
Unique ID : 177388867478784018397550818810655852363 (0x8573DA6935046A0E804A32537612C74B)
Complete name : D:\Slygebnii.roman.nashe.vremya.2011.720p.BluRay.Rus.Sub.Rus.mkv
Format : Matroska
Format version : Version 2
File size : 3.56 GiB
Duration : 1h 31mn
Overall bit rate : 5 597 Kbps
Movie name : Служебный роман. Наше время (2011)
Encoded date : UTC 2012-04-21 15:50:44
Writing application : mkvmerge v5.2.1 ('A Far Off Place') built on Jan 2 2012 23:21:10
Writing library : libebml v1.2.3 + libmatroska v1.3.0
Video
ID : 1
Format : AVC
Format/Info : Advanced Video Codec
Format profile : High@L4.1
Format settings, CABAC : Yes
Format settings, ReFrames : 10 frames
Codec ID : V_MPEG4/ISO/AVC
Duration : 1h 31mn
Bit rate : 3 976 Kbps
Width : 1 280 pixels
Height : 544 pixels
Display aspect ratio : 2.35:1
Frame rate : 23.976 fps
Color space : YUV
Chroma subsampling : 4:2:0
Bit depth : 8 bits
Scan type : Progressive
Bits/(Pixel*Frame) : 0.238
Stream size : 2.53 GiB (71%)
Title : Служебный роман. Наше время (2011)
Writing library : x264 core 115 r1995 c1e60b9
Encoding settings : cabac=1 / ref=10 / deblock=1:-3:-3 / analyse=0x3:0x133 / me=umh / subme=10 / psy=1 / psy_rd=1.00:0.10 / mixed_ref=1 / me_range=64 / chroma_me=1 / trellis=2 / 8x8dct=1 / cqm=0 / deadzone=21,11 / fast_pskip=0 / chroma_qp_offset=-3 / threads=9 / sliced_threads=0 / nr=0 / decimate=0 / interlaced=0 / bluray_compat=0 / constrained_intra=0 / bframes=9 / b_pyramid=2 / b_adapt=2 / b_bias=0 / direct=3 / weightb=1 / open_gop=0 / weightp=2 / keyint=250 / keyint_min=23 / scenecut=40 / intra_refresh=0 / rc_lookahead=40 / rc=crf / mbtree=0 / crf=17.3 / qcomp=0.60 / qpmin=0 / qpmax=69 / qpstep=4 / vbv_maxrate=50000 / vbv_bufsize=62500 / crf_max=0.0 / nal_hrd=none / ip_ratio=1.40 / pb_ratio=1.30 / aq=1:0.80
Language : Russian
Default : No
Forced : Yes
Audio
ID : 2
Format : DTS
Format/Info : Digital Theater Systems
Codec ID : A_DTS
Duration : 1h 31mn
Bit rate mode : Constant
Bit rate : 1 510 Kbps
Channel(s) : 6 channels
Channel positions : Front: L C R, Side: L R, LFE
Sampling rate : 48.0 KHz
Bit depth : 16 bits
Compression mode : Lossy
Stream size : 983 MiB (27%)
Language : Russian
Default : Yes
Forced : Yes
Text
ID : 3
Format : UTF-8
Codec ID : S_TEXT/UTF8
Codec ID/Info : UTF-8 Plain Text
Language : Russian
Default : Yes
Forced : Yes
Menu
00:00:00.000 : en:Chapter 01
00:06:29.972 : en:Chapter 02
00:14:45.551 : en:Chapter 03
00:21:46.888 : en:Chapter 04
00:28:05.642 : en:Chapter 05
00:35:59.824 : en:Chapter 06
00:41:38.829 : en:Chapter 07
00:46:57.105 : en:Chapter 08
00:53:27.245 : en:Chapter 09
01:02:08.558 : en:Chapter 10
01:07:37.094 : en:Chapter 11
01:14:19.830 : en:Chapter 12
01:23:23.456 : en:Chapter 13
01:29:22.273 : en:Chapter 14
01:35:54.206 : en:Chapter 15
01:45:00.460 : en:Chapter 16
01:49:45.829 : en:Chapter 17

Скриншоты



[Профиль] [ЛС]
Кто просматривает тему:

Форум Тема Автор Размер
Документальные HD Рождество Христово. Прямая трансляция из Храма Христа Спасителя [2015, Богослужение, HDTV 1080i] TorrentFilm 9.64 GB
Фильмы (HD Rips | 720p, 1080p) Служебный роман (1977) BDRip 1080p от FREEISLAND sergej644 7.95 GB
Фильмы (HD DVD, Blu-ray и BDRemux) Служебный роман (Эльдар Рязанов) [1977, СССР, мелодрама, комедия, BDRip 1080p] Original Rus + Sub Rus painkiller 15 GB
Фильмы (DVD 5/9) Служебный роман (Эльдар Рязанов) [1977, СССР, мелодрама, комедия, Blu ray > 2 x DVD5 (Custom)] Sub Rus + Original Rus TorrentFilm 8.6 GB
Фильмы (HD Rips | 720p, 1080p) Служебный роман (Эльдар Рязанов) [1977, СССР, мелодрама, комедия, Blu-ray disc 1080p] original rus TorrentFilm 36.25 GB
Кино СССР Служебный роман (Эльдар Рязанов)[1977, мелодрама, комедия, BDRip] sergej644 2.9 GB
Фильмы (HD DVD, Blu-ray и BDRemux) Служебный роман (Эльдар Рязанов)[1977, Мелодрама, Комедия, BDRip] [1080p] [hand made 60fps] sergej644 25.85 GB
Фильмы (HD DVD, Blu-ray и BDRemux) Служебный роман. Наше время (Сарик Андреасян) [2011 г., мелодрама, комедия, Blu-ray disc 1080p] painkiller 22.37 GB
Показать сообщения:    

Текущее время: Сегодня 08:34

Часовой пояс: GMT



Вы не можете начинать темы
Вы не можете отвечать на сообщения
Вы не можете редактировать свои сообщения
Вы не можете удалять свои сообщения
Вы не можете голосовать в опросах
Вы не можете прикреплять файлы к сообщениям
Вы не можете скачивать файлы