Слондайк / Slondike – Два мультфильма (Денис Цыбулькин) [1999, 2011, Россия, мультфильмы, TVRip]

 
Автор Сообщение

TorrentFilm ®

Пол:

Стаж: 2 года

Сообщений: 7741



Награды: Нет

Торрент-статистика

Создавать темы 27-Дек-2015 00:10

[Цитировать]

Слондайк. Донна Хуан
Страна: Россия
Жанр: мультфильм
Год выпуска: 2011
Продолжительность: 00:20:06
Режиссёр: Денис Цыбулькин
Описание: Продолжение пародийного мультфильма "Slondike" (1999). Он есть тут - http://torrentfilm.net/forum/viewtopic.php?t=941224
Действие происходит на Диком Западе, который вместо ковбоев населяют антропоморфные слоны.
Хуан, Гарсия и Сальваторе - трое грабителей-неудачников, задумав отомстить шерифу, хитростью проникают в его дом. Для этого один из них наряжается в женщину...
Качество видео: TVRip
Формат видео: AVI
Видео: 1921 kbps, 672х496 (4:3), 25.000 fps, MPEG-4 Visual (XviD)
Аудио: 192 kbps, 48.0 kHz, 2 channel, MPEG Audio (MP3)
Субтитры: отсутствуют

MediaInfo

General
Complete name : Слондайк. Донна Хуан (2011).avi
Format : AVI
Format/Info : Audio Video Interleave
File size : 305 MiB
Duration : 20mn 6s
Overall bit rate : 2 123 Kbps
Writing application : VirtualDubMod 1.5.10.3 | www.virtualdub-fr.org || (build 2550/release)
Writing library : VirtualDubMod build 2550/release
Video
ID : 0
Format : MPEG-4 Visual
Format profile : Advanced Simple@L5
Format settings, BVOP : 1
Format settings, QPel : No
Format settings, GMC : No warppoints
Format settings, Matrix : Custom
Codec ID : XVID
Codec ID/Hint : XviD
Duration : 20mn 6s
Bit rate : 1 921 Kbps
Width : 672 pixels
Height : 496 pixels
Display aspect ratio : 4:3
Frame rate : 25.000 fps
Color space : YUV
Chroma subsampling : 4:2:0
Bit depth : 8 bits
Scan type : Progressive
Compression mode : Lossy
Bits/(Pixel*Frame) : 0.231
Stream size : 276 MiB (90%)
Writing library : XviD 65
Audio
ID : 1
Format : MPEG Audio
Format version : Version 1
Format profile : Layer 3
Codec ID : 55
Codec ID/Hint : MP3
Duration : 20mn 6s
Bit rate mode : Constant
Bit rate : 192 Kbps
Channel(s) : 2 channels
Sampling rate : 48.0 KHz
Compression mode : Lossy
Stream size : 27.6 MiB (9%)
Alignment : Aligned on interleaves
Interleave, duration : 40 ms (1.00 video frame)
Interleave, preload duration : 504 ms
Writing library : LAME3.99r
Encoding settings : -m s -V 4 -q 0 -lowpass 18.6 -b 192

Скриншоты

[Профиль] [ЛС]
Кто просматривает тему:

Показать сообщения:    

Текущее время: Сегодня 14:32

Часовой пояс: GMT



Вы не можете начинать темы
Вы не можете отвечать на сообщения
Вы не можете редактировать свои сообщения
Вы не можете удалять свои сообщения
Вы не можете голосовать в опросах
Вы не можете прикреплять файлы к сообщениям
Вы не можете скачивать файлы