Сломленный / Pa-gwi-dwin sa-na-i (2010) BDRip 720p | L2, L1

 
Автор Сообщение

Swager ®

Пол:

Стаж: 1 год 2 месяца

Сообщений: 541



Награды: Нет

Торрент-статистика

Создавать темы 09-Июн-2016 09:01

[Цитировать]

Сломленный / Man of Vendetta / Pa-gwi-dwin sa-na-i
Страна: Южная Корея
Производство: i Film Co. Ltd.
Год выпуска: 2010
Жанр: триллер, драма, криминал
Продолжительность: 01:53:40
Режиссер: У Мин-хо
Автор сценария: У Мин-хо
В ролях: Ким Мён-мин, Ким Со-хён, Ли Бён-джун, Чжу-ми Пак, Ом Ги-джун
Описание: У Чу Ёнсу, глубоко верующего служителя церкви, похищают пятилетнюю дочь Херин. После сорвавшегося выкупа и года поисков полиция закрывает уголовное дело, так и не вернув ребёнка священнику и его жене. Каждый по своему родители справляются с этой трагедией — мать девочки цепляется за ещё не угасшую надежду и отчаянно продолжает искать, а Ёнсу перестаёт надеяться, отрекается от веры и пытается уйти от напоминаний о прежней жизни. Но через восемь долгих лет вновь раздаётся звонок от похитителя…

Перевод: Любительский (двухголосый) | Fi.Re. & K8 + Любительский (одноголосый) | DeMon
Субтитры: русские, английские-Качество: BDRip 720p
Формат: МКV
Видео кодек: AVC
Аудио кодек: АС3 | DTS
Видео: 1280x544 (2.35:1), 25.000 fps, MPEG-4 AVC ~4 794 kbps avg
Аудио №1: 48 kHz, AC3 Dolby Digital, 3/2 (L,C,R,l,r) + LFE ch, ~448.00 kbps | DVO
Аудио №2: 48 kHz, AC3 Dolby Digital, 3/2 (L,C,R,l,r) + LFE ch, ~448.00 kbps | VO
Аудио №3: 48 kHz, Digital Theater Systems, 3/2 (L,C,R,l,r) + LFE ch, ~1509 kbps | KOR
Формат субтитров: UTF-8 Plain Text

Media Info

General
Уникальный идентификатор : 173150406718113105331659450202578681941 (0x82438E29541EAD41B4529DCD1EAF0055)
Полное имя : man.of.vendetta.2010.bdrip.720p.mkv
Формат : Matroska
Версия формата : Version 4 / Version 2
Размер файла : 5,72 Гбайт
Продолжительность : 1 ч. 53 м.
Общий поток : 7202 Кбит/сек
Название фильма : Сломленный / Man of Vendetta.2010.BDRip.720p
Дата кодирования : UTC 2016-06-08 17:58:55
Программа кодирования : mkvmerge v6.1.0 ('Old Devil') built on Mar 4 2013 09:10:42
Библиотека кодирования : libebml v1.3.0 + libmatroska v1.4.0
Видео
Идентификатор : 1
Формат : AVC
Формат/Информация : Advanced Video Codec
Профиль формата : High@L4.1
Параметр CABAC формата : Да
Параметр ReFrames формата : 8 кадров
Идентификатор кодека : V_MPEG4/ISO/AVC
Продолжительность : 1 ч. 53 м.
Битрейт : 4794 Кбит/сек
Ширина : 1280 пикселей
Высота : 544 пикселя
Соотношение сторон : 2,35:1
Режим частоты кадров : Постоянный
Частота кадров : 25,000 кадров/сек
Цветовое пространство : YUV
Субдискретизация насыщенности : 4:2:0
Битовая глубина : 8 бит
Тип развёртки : Прогрессивная
Бит/(Пиксели*Кадры) : 0.275
Размер потока : 3,70 Гбайт (65%)
Заголовок : Man.of.Vendetta.2010.Blu-ray.720p.x264.DTS.MySilu
Библиотека кодирования : x264 core 120 r2120 0c7dab9
Настройки программы : cabac=1 / ref=8 / deblock=1:-2:-2 / analyse=0x3:0x133 / me=umh / subme=9 / psy=1 / psy_rd=1.20:0.20 / mixed_ref=1 / me_range=16 / chroma_me=1 / trellis=2 / 8x8dct=1 / cqm=0 / deadzone=21,11 / fast_pskip=1 / chroma_qp_offset=-3 / threads=9 / sliced_threads=0 / nr=0 / decimate=0 / interlaced=0 / bluray_compat=0 / constrained_intra=0 / bframes=3 / b_pyramid=2 / b_adapt=2 / b_bias=0 / direct=3 / weightb=1 / open_gop=0 / weightp=2 / keyint=250 / keyint_min=2 / scenecut=40 / intra_refresh=0 / rc_lookahead=60 / rc=2pass / mbtree=1 / bitrate=4794 / ratetol=1.0 / qcomp=0.60 / qpmin=10 / qpmax=51 / qpstep=4 / cplxblur=20.0 / qblur=0.5 / vbv_maxrate=38000 / vbv_bufsize=38000 / nal_hrd=none / ip_ratio=1.40 / aq=1:1.00
Язык : Korean
Default : Да
Forced : Нет
Аудио #1
Идентификатор : 2
Формат : AC-3
Формат/Информация : Audio Coding 3
Расширение режима : CM (complete main)
Параметр Endianness формата : Big
Идентификатор кодека : A_AC3
Продолжительность : 1 ч. 53 м.
Вид битрейта : Постоянный
Битрейт : 448 Кбит/сек
Каналы : 6 каналов
Расположение каналов : Front: L C R, Side: L R, LFE
Частота : 48,0 КГц
Метод сжатия : С потерями
Размер потока : 364 Мбайт (6%)
Заголовок : DVO AC3 5.1 448 kbps
Язык : Russian
Default : Да
Forced : Нет
Аудио #2
Идентификатор : 3
Формат : AC-3
Формат/Информация : Audio Coding 3
Расширение режима : CM (complete main)
Параметр Endianness формата : Big
Идентификатор кодека : A_AC3
Продолжительность : 1 ч. 53 м.
Вид битрейта : Постоянный
Битрейт : 448 Кбит/сек
Каналы : 6 каналов
Расположение каналов : Front: L C R, Side: L R, LFE
Частота : 48,0 КГц
Метод сжатия : С потерями
Размер потока : 364 Мбайт (6%)
Заголовок : DeMon AC3 5.1 448 kbps
Язык : Russian
Default : Нет
Forced : Нет
Аудио #3
Идентификатор : 4
Формат : DTS
Формат/Информация : Digital Theater Systems
Режим : 16
Параметр Endianness формата : Big
Идентификатор кодека : A_DTS
Продолжительность : 1 ч. 53 м.
Вид битрейта : Постоянный
Битрейт : 1509 Кбит/сек
Каналы : 6 каналов
Расположение каналов : Front: L C R, Side: L R, LFE
Частота : 48,0 КГц
Битовая глубина : 16 бит
Метод сжатия : С потерями
Размер потока : 1,20 Гбайт (21%)
Заголовок : Original DTS 5.1 1536 kbps
Язык : Korean
Default : Нет
Forced : Нет
Текст #1
Идентификатор : 5
Формат : UTF-8
Идентификатор кодека : S_TEXT/UTF8
Идентификатор кодека/Информация : UTF-8 Plain Text
Язык : Russian
Default : Да
Forced : Нет
Текст #2
Идентификатор : 6
Формат : UTF-8
Идентификатор кодека : S_TEXT/UTF8
Идентификатор кодека/Информация : UTF-8 Plain Text
Язык : English
Default : Нет
Forced : Нет

Скриншоты

[Профиль] [ЛС]
Кто просматривает тему:

Форум Тема Автор Размер
Фильмы (HD Rips | 720p, 1080p) Несломленный / Unbroken (Анджелина Джоли / Angelina Jolie) [2014, драма, военный, биография, BDRip] 1080p | iTunes sergej644 9.84 GB
Фильмы 2014 года Несломленный / Unbroken (Анджелина Джоли / Angelina Jolie) [2014, США, Драма, военный, биография, спорт, BDRip-AVC] Dub + Sub Rus , Eng + Original Eng TorrentFilm 2.8 GB
Фильмы 2014 года Несломленный / Unbroken (Анджелина Джоли) [2014 г., драма, военный, биография, спорт, HDRip] достали все 1.37 GB
Фильмы (HD DVD, Blu-ray и BDRemux) Несломленный / Unbroken (Анджелина Джоли) [2014, Драма, военный, биография, спорт, реальные события] BDRemux 1080p | Лицензия достали все 27.37 GB
Фильмы (HD Rips | 720p, 1080p) Несломленный / Unbroken (Анджелина Джоли) [2014, Драма, военный, биография, спорт, реальные события] BDRip 720p от HDClub | Лицензия достали все 6.92 GB
Фильмы 2014 года Несломленный / Unbroken (Анджелина Джоли) [2014, Драма, военный, биография, спорт, реальные события] BDRip | Лицензия BOSS 2.19 GB
Фильмы (HD DVD, Blu-ray и BDRemux) Несломленный / Unbroken (Анджелина Джоли) [2014, Драма, военный, биография, спорт, реальные события] Bly-ray EUR 1080p | Лицензия Russian Mafia 41.08 GB
Фильмы 2010 года Сломленный / Pa-gwi-dwin sa-na-i (2010) DVDRip | L2 Swager 2.15 GB
Показать сообщения:    

Текущее время: Сегодня 16:24

Часовой пояс: GMT



Вы не можете начинать темы
Вы не можете отвечать на сообщения
Вы не можете редактировать свои сообщения
Вы не можете удалять свои сообщения
Вы не можете голосовать в опросах
Вы не можете прикреплять файлы к сообщениям
Вы не можете скачивать файлы