Сломленный призрак / Broken Ghost (2017) HDRip | L2

 
Author Message

BOSS ®

Gender:

Longevity: 4 years 10 months

Posts: 14162

Location: ODESSA



: 22 ()

Mega Releaser 2 (1) Mega Seeder 2 (1) Top Releaser 3 (1)
Торрент-статистика

Post 21-Feb-2019 20:03

[Quote]

Информация о фильме
Название: Сломленный призрак
Оригинальное название: Broken Ghost
Год выхода: 2017
Жанр: Триллер
Режиссер: Ричард Грэй
В ролях: Отри Хейдон-Уилсон, Скотти Томпсон, Ник Фарнелл, Лекси Анастэйша, Девон Бэгби, Джой Брансон, Тайлер Гарретт, Джордж Гриффит, Брэндон Лессард, Френк Лотито
О фильме:
Подросток Имоджен Дэй и ее родители Саманта и Уилл переезжают в Монтану, чтобы спастись от прошлого. Отчаянно пытаясь жить новой жизнью, Имоджен должна справиться с новыми мучителями, старыми секретами и странным присутствием в доме.

Страна: США
Продолжительность: 01:44:04
Перевод: Любительский (двухголосый закадровый) | HiWay Grope
Файл
Кодек: H.264
Качество: HDRip
Видео: 720x304, 25 fps, ~1976 kbps, 0.36 bit/pixel
Звук:
Аудио rus: AC3, 48 kHz, 2 ch, 192 Kbps
Субтитры: отсутствуют
Реклама: присутствует
Семпл

MediaInfo:

General
Complete name : D:Broken Ghost.2018.HDRip.HiWayGropeBroken Ghost.2018.HDRip.HiWayGrope.avi
Format : AVI
Format/Info : Audio Video Interleave
File size : 1.58 GiB
Duration : 1 h 44 min
Overall bit rate : 2 179 kb/s
Writing application : VirtualDubMod 1.5.10.2 (build 2540/release)
Writing library : VirtualDubMod build 2540/release
Video
ID : 0
Format : AVC
Format/Info : Advanced Video Codec
Format profile : Main@L3
Format settings : CABAC / 1 Ref Frames
Format settings, CABAC : Yes
Format settings, RefFrames : 1 frame
Codec ID : H264
Duration : 1 h 44 min
Bit rate : 2 000 kb/s
Width : 720 pixels
Height : 304 pixels
Display aspect ratio : 2.35:1
Frame rate mode : Variable
Frame rate : 25.000 FPS
Color space : YUV
Chroma subsampling : 4:2:0
Bit depth : 8 bits
Scan type : Progressive
Bits/(Pixel*Frame) : 0.365
Stream size : 1.44 GiB (91%)
Writing library : x264 core 129
Encoding settings : cabac=1 / ref=1 / deblock=1:0:0 / analyse=0x1:0x131 / me=dia / subme=2 / psy=1 / psy_rd=1.00:0.00 / mixed_ref=0 / me_range=16 / chroma_me=1 / trellis=0 / 8x8dct=0 / cqm=0 / deadzone=21,11 / fast_pskip=1 / chroma_qp_offset=0 / threads=4 / lookahead_threads=1 / sliced_threads=0 / nr=0 / decimate=1 / interlaced=0 / bluray_compat=0 / constrained_intra=0 / bframes=0 / weightp=2 / keyint=250 / keyint_min=25 / scenecut=40 / intra_refresh=0 / rc_lookahead=40 / rc=abr / mbtree=1 / bitrate=2000 / ratetol=1.0 / qcomp=0.60 / qpmin=10 / qpmax=51 / qpstep=4 / ip_ratio=1.41 / aq=1:1.00
Audio
ID : 1
Format : AC-3
Format/Info : Audio Coding 3
Commercial name : Dolby Digital
Codec ID : 2000
Duration : 1 h 44 min
Bit rate mode : Constant
Bit rate : 192 kb/s
Channel(s) : 2 channels
Channel layout : L R
Sampling rate : 48.0 kHz
Frame rate : 31.250 FPS (1536 SPF)
Bit depth : 16 bits
Compression mode : Lossy
Stream size : 143 MiB (9%)
Alignment : Split accross interleaves
Interleave, duration : 40 ms (1.00 video frame)
Interleave, preload duration : 500 ms
Service kind : Complete Main

Скриншоты

Релиз от: HiWay Grope
[Profile] [PM]
Кто просматривает тему:

Forum Topic Author Size
Отечественные cериалы Несломленный (Виржиния Восгиморукиан) (1-4 из4) [2015 г., Драма, криминал, экранизация, SATRip] Pensioner 3.03 GB
Фильмы (HD Rips | 720p, 1080p) Несломленный / Unbroken (Анджелина Джоли / Angelina Jolie) [2014, драма, военный, биография, BDRip] 1080p | iTunes sergej644 9.84 GB
Фильмы 2014 года Несломленный / Unbroken (Анджелина Джоли / Angelina Jolie) [2014, США, Драма, военный, биография, спорт, BDRip-AVC] Dub + Sub Rus , Eng + Original Eng TorrentFilm 2.8 GB
Фильмы 2014 года Несломленный / Unbroken (Анджелина Джоли) [2014 г., драма, военный, биография, спорт, HDRip] достали все 1.37 GB
Фильмы (HD DVD, Blu-ray и BDRemux) Несломленный / Unbroken (Анджелина Джоли) [2014, Драма, военный, биография, спорт, реальные события] BDRemux 1080p | Лицензия достали все 27.37 GB
Фильмы (HD Rips | 720p, 1080p) Несломленный / Unbroken (Анджелина Джоли) [2014, Драма, военный, биография, спорт, реальные события] BDRip 720p от HDClub | Лицензия достали все 6.92 GB
Фильмы 2014 года Несломленный / Unbroken (Анджелина Джоли) [2014, Драма, военный, биография, спорт, реальные события] BDRip | Лицензия BOSS 2.19 GB
Фильмы (HD DVD, Blu-ray и BDRemux) Несломленный / Unbroken (Анджелина Джоли) [2014, Драма, военный, биография, спорт, реальные события] Bly-ray EUR 1080p | Лицензия Russian Mafia 41.08 GB
Display posts from previous:    

The time now is: Today 21:47

All times are GMT



You cannot post new topics in this forum
You cannot reply to topics in this forum
You cannot edit your posts in this forum
You cannot delete your posts in this forum
You cannot vote in polls in this forum
You cannot attach files in this forum
You cannot download files in this forum