Сломанная стрела / Broken Arrow (1950) BDRip-AVC от ExKinoRay | P, A

 
Автор Сообщение

Russian Mafia ®

Пол:

Стаж: 1 год 8 месяцев

Сообщений: 4257



Награды: 10 (Подробнее)

Top Releaser 4 (Количество: 1) Top Releaser 2 (Количество: 1) Mega Seeder 4 (Количество: 1)
Торрент-статистика

Создавать темы 03-Июн-2016 06:17

[Цитировать]

Информация о фильме
Название: Сломанная стрела
Оригинальное название: Broken Arrow
Год выхода: 1950
Жанр: Вестерн, приключения, драма, мелодрама, экранизация
Режиссер: Дэлмер Дэйвс
В ролях: Джеймс Стюарт, Джефф Чандлер, Дебра Пейджит, Бэзил Руисдейл, Уилл Гир, Джойс МакКензи, Артур Ханникат, Боб Адлер, Тревор Бардетт, Крис Уиллоу Берд, Рэймонд Брэмли, Арджентина Брунетти, Гарри Картер, Айрон Ангела Коуди, Дж.В. Коуди, Хейни Конклин, Долорес Кристиан Чиперт, Обри Ли Дэйл, Джон Дусетт, Роберт Фостер Довер, Начо Галиндо, Роберт Гриффин, Мики Кун, Джек Ли, Джон Марстон, Фрэнк МакГрат, Эдвин Рэнд, Джей Сильверхилс, Чарльз Солдани, Рихард Ван Опель, Билли Уилкерсон, Бад Вульф
О фильме:
Экранизация романа Эллиотта Арнольда. Аризона, 1870 год. Вот уже больше 10 лет длится война с индейцами на этой территории. Том Джеффордс (Джеймс Стюарт), бывший золотоискатель, бывший солдат, спасает от смерти молодого индейца по имени Чирикахуа, чем заслуживает благодарность его племени и вождя Кочиса, которому впервые удалось объединить под своим началом все племена апачей. Джеффордс - единственный бледнолицый, выживший при резне (напав на лагерь, индейцы привязали его к дереву). Когда он возвращается в город, людей удивляет странная снисходительность, проявленная к нему индейцами. Джеффордсу отвратительна бесконечная борьба между расами, и он решает узнать все об индейцах. Один индеец, живущий среди белых, учит Джеффордса языку, нравам, обычаям, истории апачей. Затем Джеффордс в одиночку идет на их территорию, находит Кочиса и просит разрешение открыть дорогу для почтовых курьеров. Его просьба удовлетворена. Он влюбляется в молодую индеанку по имени Сонсиахрай (Утренняя звезда). Почта не раз проходит туда и обратно через индейскую территорию, не встречая преград. Но когда в индейские земли вступает караван с солдатами, спрятанными в повозках, индейцы атакуют и истребляют его. Белые собираются повесить Джеффордса как шпиона, но им не дает этого сделать генерал, уцелевший при атаке...

Страна: США, 20th Century Fox Film Corporation
Продолжительность: 01:32:42
Перевод: Профессиональный многоголосый, авторский
Дата релиза: 11.05.2014
Файл
Кодек: H.264
Качество: BDRip (AVC)
Видео: MPEG-4 AVC, 2598 Кбит/с, 768x576
Звук:
Аудио №1: Русский (AC3, 2 ch, 192 Кбит/с) - Профессиональный многоголосый (РенТВ)
Аудио №2: Русский (AC3, 2 ch, 192 Кбит/с) - Авторский одноголосый (Кузнецов)
Аудио №3: Английский (AC3, 2 ch, 192 Кбит/с)

MediaInfo

Общее
Уникальный идентификатор : 233666046142142112636377865035103085075 (0xAFCA718ADD9D245499FA8A6816CC2213)
Полное имя : D:7Slomannaja.strela.1950.x264.BDRip.(AVC).ExKinoRay.mkv
Формат : Matroska
Размер файла : 2,06 Гбайт
Продолжительность : 1 ч. 32 м.
Общий поток : 3176 Кбит/сек
Название фильма : Slomannaja.strela.1950.x264.BDRip.(AVC).ExKinoRay
Дата кодирования : UTC 2014-04-18 16:01:50
Программа кодирования : mkvmerge v4.0.0 ('The Stars were mine') сборка от Jun 6 2010 16:18:42
Библиотека кодирования : libebml v1.0.0 + libmatroska v1.0.0
Видео
Идентификатор : 1
Формат : AVC
Формат/Информация : Advanced Video Codec
Профиль формата : High@L4.1
Параметр CABAC формата : Да
Параметр ReFrames формата : 8 кадров
Идентификатор кодека : V_MPEG4/ISO/AVC
Продолжительность : 1 ч. 32 м.
Битрейт : 2598 Кбит/сек
Ширина : 768 пикс.
Высота : 576 пикс.
Соотношение сторон : 4:3
Частота кадров : 23,976 кадр/сек
Цветовое пространство : YUV
Подвыборка цветности : 4:2:0
Битовая глубина : 8 бит
Тип развёртки : Прогрессивная
Бит/(Пиксели*Кадры) : 0.245
Размер потока : 1,64 Гбайт (80%)
Заголовок : Rip by Enigma-Vladislav71
Библиотека кодирования : x264 core 125 r2208 d9d2288
Настройки программы : cabac=1 / ref=8 / deblock=1:-2:-2 / analyse=0x3:0x133 / me=umh / subme=11 / psy=1 / psy_rd=1.00:0.00 / mixed_ref=1 / me_range=48 / chroma_me=1 / trellis=2 / 8x8dct=1 / cqm=0 / deadzone=21,11 / fast_pskip=0 / chroma_qp_offset=-2 / threads=3 / lookahead_threads=1 / sliced_threads=0 / nr=0 / decimate=0 / interlaced=0 / bluray_compat=0 / constrained_intra=0 / bframes=8 / b_pyramid=2 / b_adapt=2 / b_bias=0 / direct=3 / weightb=1 / open_gop=0 / weightp=2 / keyint=240 / keyint_min=23 / scenecut=40 / intra_refresh=0 / rc=2pass / mbtree=0 / bitrate=2598 / ratetol=1.0 / qcomp=0.60 / qpmin=10 / qpmax=51 / qpstep=4 / cplxblur=20.0 / qblur=0.5 / ip_ratio=1.40 / pb_ratio=1.30 / aq=1:1.00
Язык : English
Аудио #1
Идентификатор : 2
Формат : AC-3
Формат/Информация : Audio Coding 3
Расширение режима : CM (complete main)
Идентификатор кодека : A_AC3
Продолжительность : 1 ч. 32 м.
Вид битрейта : Постоянный
Битрейт : 192 Кбит/сек
Каналы : 2 канала
Расположение каналов : Front: L R
Частота : 48,0 КГц
Битовая глубина : 16 бит
Метод сжатия : С потерями
Размер потока : 127 Мбайт (6%)
Заголовок : Профессиональный многоголосый
Язык : Russian
Аудио #2
Идентификатор : 3
Формат : AC-3
Формат/Информация : Audio Coding 3
Расширение режима : CM (complete main)
Идентификатор кодека : A_AC3
Продолжительность : 1 ч. 32 м.
Вид битрейта : Постоянный
Битрейт : 192 Кбит/сек
Каналы : 2 канала
Расположение каналов : Front: L R
Частота : 48,0 КГц
Битовая глубина : 16 бит
Метод сжатия : С потерями
Размер потока : 127 Мбайт (6%)
Заголовок : Авторский одноголосый (С.Кузнецов)
Язык : Russian
Аудио #3
Идентификатор : 4
Формат : AC-3
Формат/Информация : Audio Coding 3
Расширение режима : CM (complete main)
Идентификатор кодека : A_AC3
Продолжительность : 1 ч. 32 м.
Вид битрейта : Постоянный
Битрейт : 192 Кбит/сек
Каналы : 2 канала
Расположение каналов : Front: L R
Частота : 48,0 КГц
Битовая глубина : 16 бит
Метод сжатия : С потерями
Размер потока : 127 Мбайт (6%)
Заголовок : Английский
Язык : English
Меню
00:00:00.000 : en:Chapter 01
00:11:38.196 : en:Chapter 02
00:18:42.830 : en:Chapter 03
00:28:35.880 : en:Chapter 04
00:37:38.464 : en:Chapter 05
00:45:34.314 : en:Chapter 06
00:52:51.877 : en:Chapter 07
01:01:57.088 : en:Chapter 08
01:05:55.201 : en:Chapter 09
01:12:12.619 : en:Chapter 10
01:20:39.835 : en:Chapter 11
01:26:08.037 : en:Chapter 12

Скриншоты


[Профиль] [ЛС]
Показать сообщения:    

Текущее время: Сегодня 02:30

Часовой пояс: GMT



Вы не можете начинать темы
Вы не можете отвечать на сообщения
Вы не можете редактировать свои сообщения
Вы не можете удалять свои сообщения
Вы не можете голосовать в опросах
Вы не можете прикреплять файлы к сообщениям
Вы не можете скачивать файлы