Слепая ярость / Blind Fury (1989) HDTVRip 720p | D, P, P2, A

 
Автор Сообщение

sergej644 ®

Пол:

Стаж: 4 года 11 месяцев

Сообщений: 6038

Откуда: Soviet Union



Награды: Нет

Торрент-статистика

Создавать темы 31-Окт-2014 15:16

[Цитировать]

--Слепая ярость / Blind Fury (1989)
Информация о фильме
Название: Слепая ярость
Оригинальное: Blind Fury
Год выхода: 1989
Страна: США
Выпущено: TriStar Pictures, TriStar Pictures, Interscope Communications
Жанр: Боевик, триллер, криминал
Продолжительность: 01:22:48
Перевод: Профессиональный (Дублированный, многоголосый, двухголосый, одноголосый) закадровый
Режиссер: Филлип Нойс
В ролях:
Рутгер Хауэр, Терри О’Куинн, Брэндон Колл, Ноубл Уиллингэм, Лиза Блаунт, Ник Кассаветис, Рик Овертон, Рэндал «Текс» Кобб, Чарльз Купер, Мег Фостер, Сё Косуги, Пол Джеймс Васкес, Джулия Гонзалез, Вуди Уотсон, Алекс Моррис, Марк Фикерт, Уизел Форшоу, Рой Морган, С.К. МакФарланд, Т.Дж. МакФарланд, Блу Декерт, Гленн Ламперт, Ред Митчел, Бонни Саггс, Гарольд Саггс, Дороти Ле Мэй, Шарон Шакелфорд, Тайгер Чун Ли, Р. Нельсон Браун, Линкольн Кэйси мл., Дебора Уильямс, Кайл Тэтчер, Патриция Мэтьюз, Эрнест Макк, Линвуд Уолкер, Роберт Прентисс, Джеффри Дж. Дашнау, Гленн Р. Уайлдер, Дэвид Р. Эллис, Майкл Адамс, Дэйв Бартоломью-Сюжет фильма
На первый взгляд он беспомощный слепой, один из тысяч несчастных бродяг. Но не стоит слишком полагаться на собственное зрение. Ветеран Вьетнама Ник Паркер ослеп на войне, но жестокий Восток научил свою жертву великому искусству защищаться. Вернувшись к мирной жизни, бывший солдат вынужден снова вступить в бой. Нику не нужно видеть своих врагов. Слепая ярость приведет его прямо к ним...
-Файл
Кодек: x264
Формат: MKV
Качество: HDTVRip 720p
Видео: MPEG-4 AVC (16:9) 1280x720, 25.000 fps, 6220 kbps
Аудио:
#1: Dolby Digital (2.0) 16 bit, 48 kHz, 192 kbps (DUB "Варус-Видео")
#2: Dolby Digital (2.0) 16 bit, 48 kHz, 192 kbps (MVO "Видеосервис")
#3: Dolby Digital (2.0) 16 bit, 48 kHz, 192 kbps (DVO "Первый канал")
#4: Dolby Digital (2.0) 16 bit, 48 kHz, 384 kbps (AVO "А. Гаврилов")
#5: Dolby Digital (2.0) 16 bit, 48 kHz, 384 kbps (ENG "Original")
Субтитры: SRT Русские, Английские
Меню: Сохранены чаптеры HDTV--

MI & x264

General
Unique ID : 232389803231093983112372314210575796967 (0xAED4A5E8A7FDE413AB46D6F1F3534AE7)
Format : Matroska
Format version : Version 2
File size : 4.37 GiB
Duration : 1h 22mn
Overall bit rate : 7 563 Kbps
Movie name : Слепая ярость (1989) HDTVRip (720p)
Encoded date : UTC 2013-04-09 12:50:53
Writing application : mkvmerge v5.8.0 ('No Sleep / Pillow') built on Sep 2 2012 15:37:04
Writing library : libebml v1.2.3 + libmatroska v1.3.0
Video
ID : 1
Format : AVC
Format/Info : Advanced Video Codec
Format profile : High@L4.1
Format settings, CABAC : Yes
Format settings, ReFrames : 8 frames
Codec ID : V_MPEG4/ISO/AVC
Duration : 1h 22mn
Bit rate : 6 220 Kbps
Width : 1 280 pixels
Height : 720 pixels
Display aspect ratio : 16:9
Frame rate mode : Constant
Frame rate : 25.000 fps
Color space : YUV
Chroma subsampling : 4:2:0
Bit depth : 8 bits
Scan type : Progressive
Bits/(Pixel*Frame) : 0.270
Stream size : 3.51 GiB (80%)
Title : Release by Alex260680
Writing library : x264 core 130 r2273 b3065e6
Encoding settings : cabac=1 / ref=8 / deblock=1:-3:-3 / analyse=0x3:0x133 / me=umh / subme=11 / psy=1 / psy_rd=1.00:0.10 / mixed_ref=1 / me_range=32 / chroma_me=1 / trellis=2 / 8x8dct=1 / cqm=0 / deadzone=21,11 / fast_pskip=0 / chroma_qp_offset=-3 / threads=12 / lookahead_threads=2 / sliced_threads=0 / nr=0 / decimate=0 / interlaced=0 / bluray_compat=0 / constrained_intra=0 / bframes=8 / b_pyramid=2 / b_adapt=2 / b_bias=0 / direct=3 / weightb=1 / open_gop=0 / weightp=2 / keyint=250 / keyint_min=25 / scenecut=40 / intra_refresh=0 / rc=2pass / mbtree=0 / bitrate=6220 / ratetol=1.0 / qcomp=0.60 / qpmin=0 / qpmax=69 / qpstep=4 / cplxblur=20.0 / qblur=0.5 / ip_ratio=1.40 / pb_ratio=1.30 / aq=1:0.80
Language : English
Default : Yes
Forced : No
Audio #1
ID : 2
Format : AC-3
Format/Info : Audio Coding 3
Mode extension : CM (complete main)
Format settings, Endianness : Big
Codec ID : A_AC3
Duration : 1h 22mn
Bit rate mode : Constant
Bit rate : 192 Kbps
Channel(s) : 2 channels
Channel positions : Front: L R
Sampling rate : 48.0 KHz
Bit depth : 16 bits
Compression mode : Lossy
Stream size : 114 MiB (3%)
Title : DUB (Варус-Видео)
Language : Russian
Default : Yes
Forced : No
Audio #2
ID : 3
Format : AC-3
Format/Info : Audio Coding 3
Mode extension : CM (complete main)
Format settings, Endianness : Big
Codec ID : A_AC3
Duration : 1h 22mn
Bit rate mode : Constant
Bit rate : 192 Kbps
Channel(s) : 2 channels
Channel positions : Front: L R
Sampling rate : 48.0 KHz
Bit depth : 16 bits
Compression mode : Lossy
Stream size : 114 MiB (3%)
Title : MVO (Видеосервис)
Language : Russian
Default : No
Forced : No
Audio #3
ID : 4
Format : AC-3
Format/Info : Audio Coding 3
Mode extension : CM (complete main)
Format settings, Endianness : Big
Codec ID : A_AC3
Duration : 1h 22mn
Bit rate mode : Constant
Bit rate : 192 Kbps
Channel(s) : 2 channels
Channel positions : Front: L R
Sampling rate : 48.0 KHz
Bit depth : 16 bits
Compression mode : Lossy
Stream size : 114 MiB (3%)
Title : DVO (Первый канал)
Language : Russian
Default : No
Forced : No
Audio #4
ID : 5
Format : AC-3
Format/Info : Audio Coding 3
Format profile : Dolby Digital
Mode extension : CM (complete main)
Format settings, Endianness : Big
Codec ID : A_AC3
Duration : 1h 22mn
Bit rate mode : Constant
Bit rate : 384 Kbps
Channel(s) : 2 channels
Channel positions : Front: L R
Sampling rate : 48.0 KHz
Bit depth : 16 bits
Compression mode : Lossy
Stream size : 227 MiB (5%)
Title : AVO (Гаврилов)
Language : Russian
Default : No
Forced : No
Audio #5
ID : 6
Format : AC-3
Format/Info : Audio Coding 3
Format profile : Dolby Digital
Mode extension : CM (complete main)
Format settings, Endianness : Big
Codec ID : A_AC3
Duration : 1h 22mn
Bit rate mode : Constant
Bit rate : 384 Kbps
Channel(s) : 2 channels
Channel positions : Front: L R
Sampling rate : 48.0 KHz
Bit depth : 16 bits
Compression mode : Lossy
Stream size : 227 MiB (5%)
Title : Original
Language : English
Default : No
Forced : No
Text #1
ID : 7
Format : UTF-8
Codec ID : S_TEXT/UTF8
Codec ID/Info : UTF-8 Plain Text
Language : Russian
Default : No
Forced : No
Text #2
ID : 8
Format : UTF-8
Codec ID : S_TEXT/UTF8
Codec ID/Info : UTF-8 Plain Text
Language : English
Default : No
Forced : No
Menu
00:00:00.000 : en:Chapter1
00:06:00.000 : en:Chapter2
00:09:26.000 : en:Chapter3
00:10:46.000 : en:Chapter4
00:18:31.000 : en:Chapter5
00:20:36.000 : en:Chapter6
00:22:32.000 : en:Chapter7
00:24:23.000 : en:Chapter8
00:27:42.000 : en:Chapter9
00:29:30.000 : en:Chapter10
00:34:52.000 : en:Chapter11
00:35:45.000 : en:Chapter12
00:38:14.000 : en:Chapter13
00:39:55.000 : en:Chapter14
00:47:55.000 : en:Chapter15
00:56:30.000 : en:Chapter16
01:01:30.000 : en:Chapter17
01:15:14.000 : en:Chapter18
01:18:35.000 : en:Chapter19-x264 [info]: frame I:796 Avg QP:17.85 size:130461
x264 [info]: frame P:34327 Avg QP:20.28 size: 52906
x264 [info]: frame B:89091 Avg QP:22.60 size: 21781
ДополнительноИспользуемое программное обеспечение: "Eac3to", "XviD4PSP", "Sonic Foundry Soft Encode", "SupRip", "MKVToolNix"
-Скриншоты
-
[Профиль] [ЛС]
Показать сообщения:    

Текущее время: Сегодня 06:29

Часовой пояс: GMT



Вы не можете начинать темы
Вы не можете отвечать на сообщения
Вы не можете редактировать свои сообщения
Вы не можете удалять свои сообщения
Вы не можете голосовать в опросах
Вы не можете прикреплять файлы к сообщениям
Вы не можете скачивать файлы