Слендер / Always Watching: A Marble Hornets Story (Джеймс Моран / James Moran) [2015, США, ужасы, WEB-DLRip] Dub (iTunes)

 
Автор Сообщение

TorrentFilm ®

Пол:

Стаж: 2 года

Сообщений: 7741



Награды: Нет

Торрент-статистика

Создавать темы 17-Окт-2015 10:14

[Цитировать]

Слендер / Always Watching: A Marble Hornets Story
Страна: США
Жанр: ужасы
Год выпуска: 2015
Продолжительность: 01:27:24
Перевод: Профессиональный (полное дублирование) iTunes
Субтитры: нет-Режиссер: Джеймс Моран / James Moran-В ролях: Крис Маркетт, Александра Брекенридж, Джейк Макдорман, Даг Джонс, Майкл Бунин, Александра Холден, Морган Е. Бастин, Блэр Бомар, Рик Отто, Синтия Марелл
-Съемочная группа готовит сюжет о том как исчезла семья. В их доме они находят коробку с кассетами на которых видны следы появления Слендера,
страшного существа, которого можно увидеть только через объектив камеры. Посмотрев эти кассеты,
группа навлекает на себя проклятие, сам Слендер начинает их преследовать.
-Сэмпл: http://sendfile.su/1164235
Качество видео: WEB-DLRip
Формат видео: AVI
Видео: XviD (1.2.2) 1000kbps 688x384 25.000fps
Аудио: MP3 128kbps 2ch 16bit 48000khz

MediaInfo

MediaInfoLib - v0.7.62
General
Complete name : E:\Контарик\Downloads\Мои раздачи\Слендер (Always Watching. A Marble Hornets Story). 2015г. WEB-DLRip. - kontarik81.avi
Format : AVI
Format/Info : Audio Video Interleave
File size : 716 MiB
Duration : 1h 27mn
Overall bit rate : 1 141 Kbps
Writing application : VirtualDubMod 1.5.10.3 | www.virtualdub-fr.org || (build 2550/release)
Writing library : VirtualDubMod build 2550/release
Video
ID : 0
Format : MPEG-4 Visual
Format profile : Advanced Simple@L5
Format settings, BVOP : 1
Format settings, QPel : No
Format settings, GMC : No warppoints
Format settings, Matrix : Default (H.263)
Codec ID : XVID
Codec ID/Hint : XviD
Duration : 1h 27mn
Bit rate : 1 003 Kbps
Width : 688 pixels
Height : 384 pixels
Display aspect ratio : 16:9
Frame rate : 25.000 fps
Color space : YUV
Chroma subsampling : 4:2:0
Bit depth : 8 bits
Scan type : Progressive
Compression mode : Lossy
Bits/(Pixel*Frame) : 0.152
Stream size : 630 MiB (88%)
Writing library : XviD 1.2.1 (UTC 2008-12-04)
Audio
ID : 1
Format : MPEG Audio
Format version : Version 1
Format profile : Layer 3
Codec ID : 55
Codec ID/Hint : MP3
Duration : 1h 27mn
Bit rate mode : Constant
Bit rate : 128 Kbps
Channel(s) : 2 channels
Sampling rate : 48.0 KHz
Compression mode : Lossy
Stream size : 80.3 MiB (11%)
Alignment : Aligned on interleaves
Interleave, duration : 40 ms (1.00 video frame)
Interleave, preload duration : 504 ms
Writing library : LAME3.99r
Encoding settings : -m s -V 4 -q 2 -lowpass 17 -b 128

Скриншоты

[Профиль] [ЛС]
Показать сообщения:    

Текущее время: Сегодня 04:16

Часовой пояс: GMT



Вы не можете начинать темы
Вы не можете отвечать на сообщения
Вы не можете редактировать свои сообщения
Вы не можете удалять свои сообщения
Вы не можете голосовать в опросах
Вы не можете прикреплять файлы к сообщениям
Вы не можете скачивать файлы