След на Земле (Первые Следы ) / First Footprints [серии 1,3 из 4] (Bentley Dean & Martin Butler) [2013 г., Документальный, история, археология, научно-популярный, SATRip]

 
Автор Сообщение

skorpionN ®

Пол:

Стаж: 1 год 8 месяцев

Сообщений: 586



Награды: 4 (Подробнее)

Mega Seeder 3 (Количество: 1) Mega Seeder 2 (Количество: 1) Mega Seeder 1 (Количество: 1)
Торрент-статистика

Создавать темы 17-Ноя-2015 16:03

[Цитировать]

След на Земле (Первые Следы ) / First Footprints [серии 1,3 из 4]
Год выпуска: 2013
Страна: Франция, Австралия, ARTE-France, Contact Films Pty Limited, ABS, Screen Australia
Жанр: Документальный, история, археология, научно-популярный
Продолжительность: 2x~00:52:33
Перевод: Профессиональный (двухголосый), компания "Видеофильм ТВ"
Режиссер: Bentley Dean & Martin Butler
Описание: Давным-давно, задолго до прибытия голландцев и появления англичан, в те времена, когда по суше ещё ходили гигантские животные, а Новая Гвинея была частью материка, в Австралии уже жили аборигены.
Список серий:
01. Кочевники каменного века / Super Nomads: 50,000 to 30,000 Years Ago
02. The Great Drought; 30,000 to 15,000 Years Ago
03. Великий потоп / The Great Flood: 18,000 to 5,000 Years Ago
04. The Biggest Estate: 9,000 Years Ago to 1788
Качество: SATRip
Формат: AVI
Видео кодек: XviD
Аудио кодек: AC3
Видео: 720x400 25fps ~1800 Kbps
Аудио: AC3 2ch, 48kHz, 192 kbps

Скриншоты


MediaInfo:

Format : AVI
Format/Info : Audio Video Interleave
File size : 751 MiB
Duration : 52mn 33s
Overall bit rate : 1 997 Kbps
Writing application : TMPGEnc Video Mastering Works 5 Version. 5.0.6.38
Writing library : TMPGEnc Video Mastering Works 5 Version. 5.0.6.38
Video
ID : 0
Format : MPEG-4 Visual
Format profile : Advanced Simple@L5
Format settings, BVOP : 2
Format settings, QPel : No
Format settings, GMC : No warppoints
Format settings, Matrix : Default (H.263)
Muxing mode : Packed bitstream
Codec ID : XVID
Codec ID/Hint : XviD
Duration : 52mn 33s
Bit rate : 1 797 Kbps
Width : 720 pixels
Height : 400 pixels
Display aspect ratio : 16:9
Frame rate : 25.000 fps
Color space : YUV
Chroma subsampling : 4:2:0
Bit depth : 8 bits
Scan type : Progressive
Compression mode : Lossy
Bits/(Pixel*Frame) : 0.250
Stream size : 676 MiB (90%)
Writing library : XviD 73
Audio
ID : 1
Format : AC-3
Format/Info : Audio Coding 3
Mode extension : CM (complete main)
Format settings, Endianness : Big
Codec ID : 2000
Duration : 52mn 32s
Bit rate mode : Constant
Bit rate : 192 Kbps
Channel(s) : 2 channels
Channel positions : Front: L R
Sampling rate : 48.0 KHz
Bit depth : 16 bits
Compression mode : Lossy
Stream size : 72.2 MiB (10%)
Alignment : Aligned on interleaves
Interleave, duration : 240 ms (6.00 video frames)
Interleave, preload duration : 224 ms

Внимание! Раздача ведётся путём добавления новых выпусков

Внимание! Раздача ведётся путём добавления новых выпусков; при каждом добавлении создаётся новый торрент. Чтобы начать докачку нового выпуска, пользователям необходимо сделать следующее:
(1) остановить скачивание,
(2) удалить старый торрент у себя из клиента (старые серии удалять не надо),
(3) скачать новый торрент и запустить его у себя в клиенте вместо старого, при этом указать клиенту путь в старую папку куда и должно происходить скачивание новых выпусков.
Ваш клиент при этом должен произвести хеширование (проверку) старой папки (если не производит сам - помогите ему сделать это). В результате он будет докачивать только те выпуски, которых у Вас ещё нет. Старые выпуски при этом не удаляются, а продолжают раздаваться!
Eсли Вы уже удалили старые выпуски, то предотвратить их повторную закачку можно, сняв галочки в соответствующих местах при запуске нового торрента. По возможности, желательно не удалять старые выпуски как можно дольше, чтобы релизёр не только продолжал раздавать старые выпуски, но и смог сконцентрироваться на новых.
Добавлено
03. Великий потоп / The Great Flood: 18,000 to 5,000 Years Ago
[Профиль] [ЛС]

skorpionN ®

Пол:

Стаж: 1 год 8 месяцев

Сообщений: 586



Награды: 4 (Подробнее)

Top Releaser 2 (Количество: 1) Mega Seeder 2 (Количество: 1) Mega Seeder 3 (Количество: 1)
Торрент-статистика

Создавать темы 18-Ноя-2015 22:24 (спустя 1 день 6 часов)

[Цитировать]

Замена 3 серии. Перекачайте торрент-файл
[Профиль] [ЛС]

davidtsin

Стаж: 1 год 7 месяцев

Сообщений: 1



Награды: Нет

Торрент-статистика

Создавать темы 29-Ноя-2015 16:33 (спустя 10 дней)

[Цитировать]

Способо!
но 3-ю не нашел...
С уважением У вас прекрасние загрузкий! SUPER!
[Профиль] [ЛС]
Кто просматривает тему:

Показать сообщения:    

Текущее время: Сегодня 20:58

Часовой пояс: GMT



Вы не можете начинать темы
Вы не можете отвечать на сообщения
Вы не можете редактировать свои сообщения
Вы не можете удалять свои сообщения
Вы не можете голосовать в опросах
Вы не можете прикреплять файлы к сообщениям
Вы не можете скачивать файлы