Следствие вели... с Леонидом Каневским. <<Хочу ребёнка!>> Выпуск 294 (эфир 14.02.2015) (Борис Фёдоров) [2015, Документальный цикл, криминал, HDTV 1080i, RU]

 
Автор Сообщение

TorrentFilm ®

Пол:

Стаж: 2 года

Сообщений: 7741



Награды: Нет

Торрент-статистика

Создавать темы 18-Фев-2015 00:01

[Цитировать]

Следствие вели... с Леонидом Каневским. Выпуск 294 (эфир 14.02.2015)
Год выпуска: 2015
Страна: Россия
Студия: Киностудия "Версия"
Жанр: Документальный цикл, криминал
Продолжительность: 00:43:08
Перевод: Не требуется
Русские субтитры: нет
Режиссер: Борис Фёдоров
Описание:
Эти уголовные дела гремели на весь Советский Союз. По ним были написаны романы и сняты художественные фильмы. Их фигуранты — миллионеры эпохи социализма, хитроумные воры, профессиональные грабители и валютчики. Они бросили вызов советскому обществу. Вызов приняли лучшие сыщики страны. В их распоряжении не было компьютеров, сотовой связи и бойцов ОМОНа. Но это не мешало вершиться правосудию. Банда «Черная кошка», дело банды советских гангстеров конца 60-х годов, прозванных «Фантомасами», увлекательная история налетчика Леонида Пантелеева…

294. Хочу ребёнка!

В одном из столичных роддомов происходит ЧП. После рядовых процедур внезапно умирает молодая мама. В ее смерти обвиняют медсестру, которая готовила лекарства для пациентов. Однако вскоре ребенок погибшей женщины загадочным образом исчезает из роддома. Становится ясно: оба ЧП связаны друг с другом. Может, во всем виноват отец ребенка? Сыщики даже не предполагают: в этой истории все намного сложнее и необычнее…
Сэмпл: http://multi-up.com/1032985
Тип релиза: HDTV 1080i
Контейнер: TS
Видео: AVC, 1920x1080, (16:9), 25 fps, 14.3 Mbps, 0.276 bits/pixel
Аудио: русский MP2, 48 kHz, 2ch, 192 kbps

MediaInfo

GeneralID : 1 (0x1)Complete name : C:\Следствие вели... с Леонидом Каневским\294. Хочу ребёнка!.tsFormat : MPEG-TSFile size : 4.59 GiBDuration : 43mn 8sOverall bit rate mode : VariableOverall bit rate : 15.2 Mbps
VideoID : 4096 (0x1000)Menu ID : 1 (0x1)Format : AVCFormat/Info : Advanced Video CodecFormat profile : Main@L4.1Format settings, CABAC : YesFormat settings, ReFrames : 2 framesCodec ID : 27Duration : 43mn 8sBit rate : 14.3 MbpsWidth : 1 920 pixelsHeight : 1 080 pixelsDisplay aspect ratio : 16:9Frame rate : 25.000 fpsColor space : YUVChroma subsampling : 4:2:0Bit depth : 8 bitsScan type : ProgressiveBits/(Pixel*Frame) : 0.276Stream size : 4.31 GiB (94%)
AudioID : 2203 (0x89B)Menu ID : 1 (0x1)Format : MPEG AudioFormat version : Version 1Format profile : Layer 2Codec ID : 3Duration : 43mn 8sBit rate mode : ConstantBit rate : 192 KbpsChannel(s) : 2 channelsSampling rate : 48.0 KHzCompression mode : LossyStream size : 59.2 MiB (1%)Language : Russian

Скриншоты

[Профиль] [ЛС]
Кто просматривает тему:

Форум Тема Автор Размер
Фильмы 2006-2008 года Влияние / Последствия / Хватай и беги / Repercussions / Répercussions (Каролин Юппер / Caroline Huppert) [2008, Франция, криминал, SATRip] MVO (Кинопоказ) TorrentFilm 1.37 GB
R.G.TorrentFilm Video Гибель "Курска". Следственный эксперимент [2015 г., Документальный, SATRip] Один 777 499 MB
Фильмы 2014 года Злая кровь / Плохая наследственность / Wicked blood (Марк Янг / Mark Young) [2014, США, Криминальная драма, DVDRip-AVC] VO (Andi) + Sub Rus + Original Eng bot 1.32 GB
Отечественные cериалы Криминальное наследство [01-04 из 04] (2014) SATRip от GeneralFilm достали все 1.96 GB
Фильмы (HD Rips | 720p, 1080p) Роковое наследство (Евгений Лаврентьев) [2014, Россия, Мелодрама, HDTV 1080i] TorrentFilm 4.21 GB
Фильмы 2014 года Роковое наследство [01-02 из 02] (2014) HDTVRip от Files-x sergej644 1.08 GB
Мультфильмы СССР Следствие ведут Колобки (1983) TVRip Белочка 250 MB
Мультфильмы СССР Следствие ведут Колобки [01-04 из 04] (1986-1987) DVDRip-AVC от Leonardo and Scarabey Белочка 402 MB
Показать сообщения:    

Текущее время: Сегодня 18:58

Часовой пояс: GMT



Вы не можете начинать темы
Вы не можете отвечать на сообщения
Вы не можете редактировать свои сообщения
Вы не можете удалять свои сообщения
Вы не можете голосовать в опросах
Вы не можете прикреплять файлы к сообщениям
Вы не можете скачивать файлы