Следствием установлено (Ада (Армида) Неретниеце) [1981, детектив, DVB]

 
Автор Сообщение

reversefile ®

Пол:

Стаж: 4 года 5 месяцев

Сообщений: 842

Откуда: ReverseFile.org



Награды: Нет

Торрент-статистика

Создавать темы 11-Авг-2014 06:26

[Цитировать]

Следствием установлено
Жанр: детектив
Год выпуска: 1981
Продолжительность: 01:27:08
Режиссёр: Ада (Армида) Неретниеце
В ролях: Вия Артмане, Гунарс Цилинский (Цилинскис), Дмитрий Палеес, Леонид Кулагин, Евгений Иванычев, Светлана Брагарник, Валентина Талызина, Янис Сканис, Галина Заборская-Вермеер
Описание: В городском парке ночью убита женщина. Примерно в это же время патруль заметил человека, который, убегая, обронил сумку с деньгами. Следователь прокуратуры Рута Граудиня предполагает, что между этими фактами существует определенная связь...
Доп. информация: Запись потока *.ts со спутника EUTELSAT, ремукс в *.mpg программой VideoReDo.
Качество видео: DVB
Формат видео: MPEG-PS
Видео: MPEG Video, 720(768)x576 (4:3), 25,000 кадров/сек, 2 602 Кбит/сек
Аудио: MPEG Audio, 48,0 КГц, 192 Кбит/сек, 2 канала

MediaInfo

General
Complete name : D:\MPG\СЛЕДСТВИЕМ УСТАНОВЛЕНО (КИНОСОЮЗ).mpg
Format : MPEG-PS
File size : 1.74 GiB
Duration : 1h 27mn
Overall bit rate mode : Variable
Overall bit rate : 2 851 Kbps
Video
ID : 224 (0xE0)
Format : MPEG Video
Format version : Version 2
Format profile : Main@Main
Format settings, BVOP : Yes
Format settings, Matrix : Custom
Format settings, GOP : Variable
Duration : 1h 27mn
Bit rate mode : Variable
Bit rate : 2 602 Kbps
Maximum bit rate : 15.0 Mbps
Width : 720 pixels
Height : 576 pixels
Display aspect ratio : 4:3
Frame rate : 25.000 fps
Standard : PAL
Color space : YUV
Chroma subsampling : 4:2:0
Bit depth : 8 bits
Scan type : Interlaced
Scan order : Top Field First
Compression mode : Lossy
Bits/(Pixel*Frame) : 0.251
Time code of first frame : 00:00:00:00
Time code source : Group of pictures header
Stream size : 1.58 GiB (91%)
Audio
ID : 192 (0xC0)
Format : MPEG Audio
Format version : Version 1
Format profile : Layer 2
Duration : 1h 27mn
Bit rate mode : Constant
Bit rate : 192 Kbps
Channel count : 2 channels
Sampling rate : 48.0 KHz
Compression mode : Lossy
Delay relative to video : 22ms
Stream size : 120 MiB (7%)
[Профиль] [ЛС]

Создавать темы 06-Авг-2015 22:03 (спустя 11 месяцев 26 дней)

Топик был перенесен из форума Кино СССР в форум Кино СССР
sergej644
 
Кто просматривает тему:

Форум Тема Автор Размер
Фильмы 2006-2008 года Влияние / Последствия / Хватай и беги / Repercussions / Répercussions (Каролин Юппер / Caroline Huppert) [2008, Франция, криминал, SATRip] MVO (Кинопоказ) TorrentFilm 1.37 GB
R.G.TorrentFilm Video Гибель "Курска". Следственный эксперимент [2015 г., Документальный, SATRip] Один 777 499 MB
Фильмы 2014 года Злая кровь / Плохая наследственность / Wicked blood (Марк Янг / Mark Young) [2014, США, Криминальная драма, DVDRip-AVC] VO (Andi) + Sub Rus + Original Eng bot 1.32 GB
Отечественные cериалы Криминальное наследство [01-04 из 04] (2014) SATRip от GeneralFilm достали все 1.96 GB
Фильмы (HD Rips | 720p, 1080p) Роковое наследство (Евгений Лаврентьев) [2014, Россия, Мелодрама, HDTV 1080i] TorrentFilm 4.21 GB
Фильмы 2014 года Роковое наследство [01-02 из 02] (2014) HDTVRip от Files-x sergej644 1.08 GB
Мультфильмы СССР Следствие ведут Колобки (1983) TVRip Белочка 250 MB
Мультфильмы СССР Следствие ведут Колобки [01-04 из 04] (1986-1987) DVDRip-AVC от Leonardo and Scarabey Белочка 402 MB
Показать сообщения:    

Текущее время: Сегодня 11:04

Часовой пояс: GMT



Вы не можете начинать темы
Вы не можете отвечать на сообщения
Вы не можете редактировать свои сообщения
Вы не можете удалять свои сообщения
Вы не можете голосовать в опросах
Вы не можете прикреплять файлы к сообщениям
Вы не можете скачивать файлы