Следопыт / Pathfinder (Маркус Ниспел / Marcus Nispel) [2007, США, Приключения, боевик, HDTVRip] Dub

 
Автор Сообщение

painkiller ®

Стаж: 2 года 3 месяца

Сообщений: 582



Награды: Нет

Торрент-статистика

Создавать темы 14-Авг-2014 13:02

[Цитировать]

Следопыт / Pathfinder
Страна: США
Жанр: Приключения, боевик
Год выпуска: 2007
Продолжительность: 01:30:42
Перевод: Профессиональный (дублированный)
Cубтитры: нет
Оригинальная аудиодорожка: нет
Режиссер: Маркус Ниспел / Marcus Nispel
В ролях: Карл Урбан, Мун Бладгуд, Рассел Минс, Клэнси Браун, Джей Таваре, Натаниель Арканд, Ральф Мёллер, Кевин Лоринг, Вейн Чарльз Бэйкер, Мишель Траш
Описание: История покорения норвежскими викингами племен северо-американских индейцев.
После сожжения очередного поселения, мальчик-викинг отказывается убить плененного индейского подростка. В наказание викинги оставляют выродка у индейцев. Пройдет немного времени и именно этот уже возмужавший юноша поведет за собой племя в очередной схватке с завоевателями.
Доп. информация: Рип с канала Первый HD. Из видеоряда удален логотип канала, остались послерекламные вставки с названием фильма. Версия не полная, но здесь самая полная картинка - на BD и DVD картинка обрезана до 2.35:1.
Качество видео: HDTVRip
Формат видео: AVI
Видео: MPEG4, XviD, 720x400 (16/9), 25.000 fps, 1 958 Kbps (0.272 bit/pixel)
Аудио: AC-3, 48.0 KHz, 2 ch, 192 Kbps, CBR

MediaInfo

Общее
Полное имя : K:\Следопыт.avi
Формат : AVI
Формат/Информация : Audio Video Interleave
Размер файла : 1,37 Гбайт
Продолжительность : 1 ч. 30 м.
Общий поток : 2160 Кбит/сек
Название фильма : Следопыт / Pathfinder (2007)
Режиссёр : miha2154
Программа кодирования : VirtualDubMod 1.5.10.2 (build 2540/release)
Библиотека кодирования : VirtualDubMod build 2540/release
Правообладатель : специально для BitTorrent трекер RuTracker.org (ex torrents.ru)
Видео
Идентификатор : 0
Формат : MPEG-4 Visual
Профиль формата : Advanced Simple@L5
Параметр BVOP формата : 2
Параметр QPel формата : Нет
Параметр GMC формата : Без точки перехода
Параметр матрицы формата : Default (MPEG)
Идентификатор кодека : XVID
Идентификатор кодека/Подсказка : XviD
Продолжительность : 1 ч. 30 м.
Битрейт : 1958 Кбит/сек
Ширина : 720 пикселей
Высота : 400 пикселей
Соотношение сторон : 16:9
Частота кадров : 25,000 кадров/сек
Цветовое пространство : YUV
Субдискретизация насыщенности : 4:2:0
Битовая глубина : 8 бит
Тип развёртки : Прогрессивная
Метод сжатия : С потерями
Бит/(Пиксели*Кадры) : 0.272
Размер потока : 1,24 Гбайт (91%)
Библиотека кодирования : XviD 1.1.0 (UTC 2005-11-22)
Аудио
Идентификатор : 1
Формат : AC-3
Формат/Информация : Audio Coding 3
Расширение режима : CM (complete main)
Параметр Endianness формата : Big
Идентификатор кодека : 2000
Продолжительность : 1 ч. 30 м.
Вид битрейта : Постоянный
Битрейт : 192 Кбит/сек
Каналы : 2 канала
Расположение каналов : Front: L R
Частота : 48,0 КГц
Битовая глубина : 16 бит
Метод сжатия : С потерями
Размер потока : 125 Мбайт (9%)
Выравнивание : Разделение по промежуткам
Продолжительность промежутка : 40 мс. (1,00 видеокадр)
Время предзагрузки промежутка : 500 мс.
Заголовок : Профессиональный (полное дублирование) 1 канал

Скриншоты


[Профиль] [ЛС]

Создавать темы 06-Авг-2015 23:13 (спустя 11 месяцев 23 дня)

Топик был перенесен из форума Фильмы до 2014 года в форум Фильмы до 2012 года
sergej644
 
Кто просматривает тему:

Форум Тема Автор Размер
365 365: Сети истории / Storia in Rete [выпуски 1-10] (Александра Джиганте / Alessandra Gigante, Фабио Андриола / Fabio Andriola) [2009-2013 г., окументально-постановочный, история, арх... skorpionN 8.01 GB
BBC BBC: Безграничная Римская империя с Мэри Бирд / Mary Beard Ultimate Rome Empire Without Limit [серии 1-4 из 4] (Chris Mitchell) [2015 г., Документальный, история, исследования, HDTVRip-AVC 720p] skorpionN 7.21 GB
BBC BBC: Бессмертный Египет с Джоанн Флетчер (История Египта) / Immortal Egypt with Joann Fletcher (The Story of Egypt) [серии 1-4 из 4] (Ian A. Hunt) [2015 г., Документальный, история, исследования,... skorpionN 7.22 GB
BBC BBC: Восхождение женщины / The Ascent of Woman [серии 1-4 из 4] (Hugo Macgregor) [2015 г., Документальный, история, археология, исследования, HDTVRip 720p] skorpionN 6.28 GB
BBC BBC: Гении древнего мира / Genius Ancient World [серии 1-3 из 3] (Rob Gowling) [2015 г., Документальный, история, исследования, HDTVRip-AVC 720p] skorpionN 5.38 GB
BBC BBC: Женщины эпохи Реставрации (Куртизанки, домохозяйки и героини) / Harlots Housewives and Heroines: A 17th Century History for Girls [серии 1-3 из 3](Nick Gillam-Smith, Eleanor Scoones) [2012 г... skorpionN 4.33 GB
BBC BBC: Жизнь млекопитающих / The Life of Mammals [серии 1-9 из 10] (Марк Линфилд, Нил Лукас, Ванесса Берловитц, Майк Сализбэрри, Хью Кордейт) [2002-2003 г., Документальный, природа, зоология, фау... skorpionN 11.95 GB
BBC BBC: Жизнь на Земле / Life on Earth [серии 1-13 из 13] (Дэвид Аттэнборо) [1979 г., Документальный, флора, фауна, природа, естествознание, исследование, BDRip 720p] skorpionN 24.95 GB
Показать сообщения:    

Текущее время: Сегодня 18:00

Часовой пояс: GMT



Вы не можете начинать темы
Вы не можете отвечать на сообщения
Вы не можете редактировать свои сообщения
Вы не можете удалять свои сообщения
Вы не можете голосовать в опросах
Вы не можете прикреплять файлы к сообщениям
Вы не можете скачивать файлы