Сладкий запах успеха / Sweet Smell of Success (1957) BDRip 720p by msltel | P, P2, A

 
Автор Сообщение

sergej644 ®

Пол:

Стаж: 4 года 11 месяцев

Сообщений: 6041

Откуда: Soviet Union



Награды: Нет

Торрент-статистика

Создавать темы 26-Ноя-2014 12:35

[Цитировать]

Год выпуска: 1957
Страна: США
Жанр: драма, фильм-нуар
Продолжительность: 01:36:40
Перевод: профессиональный многоголосый, профессиональный двухголосый, авторский
Субтитры: русские
Режиссёр: Александр Маккендрик
В ролях: Бёрт Ланкастер, Тони Кёртис, Сьюзэн Харрисон, Мартин Милнер, Сэм Ливин, Барбара Николс, Джефф Доннелл, Джо Фриско, Эмиль Мейер, Эдит Этуотер, Чико Гамилтон, Ник Адамс, Джей Адлер, Льюис Чарльз, Бадди Кларк, Лоуренс Добкин, Джон Фидлер, Бесс Флауэрс, Уильям Форрест, Джеймс Хилл, Пол Хорн, Фред Кац, Джозеф Леон, Клиффорд Одетс, Джейн Росс, Отем Расселл, Карсон Смит, Куеени Смит, Лерин Таттл, Гарри Тайлер, Филип Ван Зандт
Описание: Сидни Фалько мечтает о том мгновении, когда он будет управлять судьбами людей и плевать на них сверху, как это делает его кумир и лучший друг Джей Джей Хансекер. Но Джей Джей зол на Сидни. Он поручил своему протеже разлучить Сьюзен, сестру Хансекера, и джазового гитариста Стива. Сидни лезет из кожи вон, чтобы его благодетель снова стал милостив.

Качество: BDRip 720p
Формат: MKV
Видео кодек: H.264
Аудио кодек: AC3
Видео: 6797 Kбит/с, 1200x720, 23.976 кадра/с, 0.328 bpp
Аудио 1: русский, AC3, 192 kbps, 2 ch, 48 kHz [профессиональный многоголосый, СПб, 5 канал]
Аудио 2: русский, AC3, 192 kbps, 2 ch, 48 kHz [профессиональный двухголосый]
Аудио 3: русский, AC3, 192 kbps, 1 ch, 48 kHz [авторский, Сергей Визгунов]
Аудио 4: английский, AC3, 192 kbps, 1 ch, 48 kHz [оригинал]
Аудио 5: английский, AC3, 192 kbps, 1 ch, 48 kHz [комментарий]
Имеются неименованные главы/чаптеры.

Награды

Британская академия, 1958 год
Номинации (1):
Лучший иностранный актер (Тони Кертис)

MediaInfo

Общее
Уникальный идентификатор : 199972073546701534563025912819801502458 (0x9671386F4FC3AD43AD7D2736F311B2FA)
Полное имя : D:VideoSladkij zapah uspeha.1957.BDRip.720p.mkv
Формат : Matroska
Версия формата : Version 4 / Version 2
Размер файла : 5,34 Гбайт
Продолжительность : 1 ч. 36 м.
Общий поток : 7915 Кбит/сек
Дата кодирования : UTC 2014-11-26 09:41:10
Программа кодирования : mkvmerge v7.3.0 ('Nouages') 64bit built on Oct 22 2014 18:53:34
Библиотека кодирования : libebml v1.3.0 + libmatroska v1.4.1
DURATION : 01:34:43.909000000
NUMBER_OF_FRAMES : 1330
NUMBER_OF_BYTES : 90473
_STATISTICS_WRITING_APP : mkvmerge v7.3.0 ('Nouages') 64bit built on Oct 22 2014 18:53:34
_STATISTICS_WRITING_DATE_UTC : 2014-11-26 09:41:10
_STATISTICS_TAGS : BPS DURATION NUMBER_OF_FRAMES NUMBER_OF_BYTES
Видео
Идентификатор : 1
Формат : AVC
Формат/Информация : Advanced Video Codec
Профиль формата : High@L4.1
Параметр CABAC формата : Да
Параметр ReFrames формата : 9 кадров
Идентификатор кодека : V_MPEG4/ISO/AVC
Продолжительность : 1 ч. 36 м.
Битрейт : 6797 Кбит/сек
Ширина : 1200 пикселей
Высота : 720 пикселей
Соотношение сторон : 1,667
Режим частоты кадров : Постоянный
Частота кадров : 23,976 кадра/сек
Цветовое пространство : YUV
Субдискретизация насыщенности : 4:2:0
Битовая глубина : 8 бит
Тип развёртки : Прогрессивная
Бит/(Пиксели*Кадры) : 0.328
Размер потока : 4,59 Гбайт (86%)
Заголовок : BDRip -- STarankov
Библиотека кодирования : x264 core 142 r2431 ac76440
Настройки программы : cabac=1 / ref=9 / deblock=1:-1:-1 / analyse=0x3:0x113 / me=umh / subme=10 / psy=1 / psy_rd=1.00:0.15 / mixed_ref=1 / me_range=32 / chroma_me=1 / trellis=2 / 8x8dct=1 / cqm=0 / deadzone=21,11 / fast_pskip=1 / chroma_qp_offset=-3 / threads=6 / lookahead_threads=1 / sliced_threads=0 / nr=0 / decimate=1 / interlaced=0 / bluray_compat=0 / constrained_intra=0 / bframes=8 / b_pyramid=2 / b_adapt=2 / b_bias=0 / direct=3 / weightb=1 / open_gop=0 / weightp=2 / keyint=230 / keyint_min=23 / scenecut=40 / intra_refresh=0 / rc_lookahead=40 / rc=crf / mbtree=0 / crf=18.0 / qcomp=0.60 / qpmin=0 / qpmax=69 / qpstep=4 / vbv_maxrate=50000 / vbv_bufsize=62500 / crf_max=0.0 / nal_hrd=none / filler=0 / ip_ratio=1.40 / pb_ratio=1.30 / aq=1:1.00
Язык : English
Default : Да
Forced : Нет
DURATION : 01:36:40.211000000
NUMBER_OF_FRAMES : 139066
NUMBER_OF_BYTES : 5040191656
_STATISTICS_WRITING_APP : mkvmerge v7.3.0 ('Nouages') 64bit built on Oct 22 2014 18:53:34
_STATISTICS_WRITING_DATE_UTC : 2014-11-26 09:41:10
_STATISTICS_TAGS : BPS DURATION NUMBER_OF_FRAMES NUMBER_OF_BYTES
Аудио #1
Идентификатор : 2
Формат : AC-3
Формат/Информация : Audio Coding 3
Расширение режима : CM (complete main)
Параметр Endianness формата : Big
Идентификатор кодека : A_AC3
Продолжительность : 1 ч. 36 м.
Вид битрейта : Постоянный
Битрейт : 192 Кбит/сек
Каналы : 2 канала
Расположение каналов : Front: L R
Частота : 48,0 КГц
Битовая глубина : 16 бит
Метод сжатия : С потерями
Размер потока : 133 Мбайт (2%)
Заголовок : MVO (СПб, 5 канал)
Язык : Russian
Default : Да
Forced : Нет
Аудио #2
Идентификатор : 3
Формат : AC-3
Формат/Информация : Audio Coding 3
Расширение режима : CM (complete main)
Параметр Endianness формата : Big
Идентификатор кодека : A_AC3
Продолжительность : 1 ч. 36 м.
Вид битрейта : Постоянный
Битрейт : 192 Кбит/сек
Каналы : 2 канала
Расположение каналов : Front: L R
Частота : 48,0 КГц
Битовая глубина : 16 бит
Метод сжатия : С потерями
Размер потока : 133 Мбайт (2%)
Заголовок : DVO
Язык : Russian
Default : Нет
Forced : Нет
Аудио #3
Идентификатор : 4
Формат : AC-3
Формат/Информация : Audio Coding 3
Расширение режима : CM (complete main)
Параметр Endianness формата : Big
Идентификатор кодека : A_AC3
Продолжительность : 1 ч. 36 м.
Вид битрейта : Постоянный
Битрейт : 192 Кбит/сек
Каналы : 1 канал
Расположение каналов : Front: C
Частота : 48,0 КГц
Битовая глубина : 16 бит
Метод сжатия : С потерями
Размер потока : 133 Мбайт (2%)
Заголовок : AVO (Сергей Визгунов)
Язык : Russian
Default : Нет
Forced : Нет
Аудио #4
Идентификатор : 5
Формат : AC-3
Формат/Информация : Audio Coding 3
Расширение режима : CM (complete main)
Параметр Endianness формата : Big
Идентификатор кодека : A_AC3
Продолжительность : 1 ч. 36 м.
Вид битрейта : Постоянный
Битрейт : 192 Кбит/сек
Каналы : 1 канал
Расположение каналов : Front: C
Частота : 48,0 КГц
Битовая глубина : 16 бит
Метод сжатия : С потерями
Размер потока : 133 Мбайт (2%)
Заголовок : Original
Язык : English
Default : Нет
Forced : Нет
Аудио #5
Идентификатор : 6
Формат : AC-3
Формат/Информация : Audio Coding 3
Расширение режима : CM (complete main)
Параметр Endianness формата : Big
Идентификатор кодека : A_AC3
Продолжительность : 1 ч. 36 м.
Вид битрейта : Постоянный
Битрейт : 192 Кбит/сек
Каналы : 1 канал
Расположение каналов : Front: C
Частота : 48,0 КГц
Битовая глубина : 16 бит
Метод сжатия : С потерями
Размер потока : 133 Мбайт (2%)
Заголовок : Commentary
Язык : English
Default : Нет
Forced : Нет
Текст
Идентификатор : 7
Формат : UTF-8
Идентификатор кодека : S_TEXT/UTF8
Идентификатор кодека/Информация : UTF-8 Plain Text
Заголовок : русский
Язык : Russian
Default : Нет
Forced : Нет
Меню
00:00:00.000 : en:00:00:00.000
00:02:12.506 : en:00:02:12.506
00:07:23.568 : en:00:07:23.568
00:09:51.299 : en:00:09:51.299
00:13:23.676 : en:00:13:23.676
00:15:11.160 : en:00:15:11.160
00:18:38.742 : en:00:18:38.742
00:26:43.810 : en:00:26:43.810
00:31:43.192 : en:00:31:43.192
00:36:19.510 : en:00:36:19.510
00:39:08.637 : en:00:39:08.637
00:44:43.180 : en:00:44:43.180
00:46:41.215 : en:00:46:41.215
00:50:05.210 : en:00:50:05.210
00:53:27.329 : en:00:53:27.329
00:58:15.492 : en:00:58:15.492
01:01:22.679 : en:01:01:22.679
01:04:16.894 : en:01:04:16.894
01:12:10.451 : en:01:12:10.451
01:15:58.845 : en:01:15:58.845
01:19:40.649 : en:01:19:40.649
01:25:26.371 : en:01:25:26.371
01:30:13.198 : en:01:30:13.198

Скриншоты (увеличить)

[Профиль] [ЛС]
Кто просматривает тему:

Форум Тема Автор Размер
Фантастика и фэнтези Глен Кук – Приключения Гаррета 01. Сладкозвучный серебряный блюз (2015) MP3 Swager 437 MB
Фильмы 2014 года Прогулка среди могил / A Walk Among the Tombstones (Скотт Фрэнк / Scott Frank) [2014 г., детектив, триллер, криминал, драма, HDRip] DVO (Сладкая парочка) TorrentFilm 745 MB
Фильмы 2014 года Прогулка среди могил / A Walk Among the Tombstones (Скотт Фрэнк / Scott Frank) [2014, США, Боевик, триллер, криминал, детектив, HDRip] DVO (Сладкая парочка) TorrentFilm 1.36 GB
Фильмы 2014 года Прогулка среди могил / A Walk Among the Tombstones (Скотт Фрэнк / Scott Frank) [2014, США, Боевик, триллер, криминал, детектив, HDTVRip] DVO (Сладкая парочка) TorrentFilm 1.46 GB
Кино СССР Сладкая женщина (Владимир Фетин) [1976, драма, мелодрама] DVDRip BOSS 1.46 GB
Отечественные cериалы Сладкая жизнь [S01-02] (2014-2015) WEB-DL 720p достали все 13.6 GB
Отечественные cериалы Сладкая жизнь [S01-03] (2014-2016) WEB-DL 720p достали все 21.12 GB
Отечественные cериалы Сладкая жизнь [S02] (2015) SATRip достали все 4.79 GB
Показать сообщения:    

Текущее время: Сегодня 03:06

Часовой пояс: GMT



Вы не можете начинать темы
Вы не можете отвечать на сообщения
Вы не можете редактировать свои сообщения
Вы не можете удалять свои сообщения
Вы не можете голосовать в опросах
Вы не можете прикреплять файлы к сообщениям
Вы не можете скачивать файлы