Славные парни / The Nice Guys (2016) BDRip 1080p | Лицензия

 
Автор Сообщение

достали все ®

Пол:

Стаж: 1 год 8 месяцев

Сообщений: 6545



Награды: 12 (Подробнее)

Mega Seeder 3 (Количество: 1) За внесенный вклад в развитие сайта (Количество: 1) Mega Seeder 2 (Количество: 1)
Торрент-статистика

Создавать темы 01-Окт-2016 04:05

[Цитировать]

Информация о фильме
Название: Славные парни
Оригинальное название: The Nice Guys
Год выхода: 2016
Жанр: Криминал, комедия
Режиссер: Шейн Блэк
В ролях: Райан Гослинг, Ким Бейсингер, Расселл Кроу, Энгаури Райс, Мэтт Бомер, Маргарет Куэлли, Йайа ДаКоста, Кит Дэвид, Бо Напп, Лоис Смит
О фильме:
Что может объединить двух совершенно разных людей - частного сыщика Марчи Холланда и наёмного вышибалу Хили Джексона? Лос-Анджелес 1970 год. Два, кажется несвязанных между собой дела, которые взялись расследовать эти разные по профессиям и жизненным позициям человека, пропажа девушки и смерть порнозвезды. В ходе расследования нити этих дел приведут к шокирующему результату - заговор в высших эшелонах власти!

Страна: США, Великобритания
Студия: Bloom, Lip Sync Productions, Misty Mountains
Продолжительность: 01:49:48
Перевод: Дублированный | Лицензия
Файл
Кодек: x264
Качество: BDRip 1080p
Видео: 1920x800, 13.3 Mbit/s, 23.976 fps
Звук:
Аудио #01: 48 kHz, AC3, 5.1, 640 Kbps | Дублированный | Лицензия |
Аудио #02: 48 kHz, DTS, 5.1, 1510 kbps | Оригинал |
Субтитры: Русские, английские

MI

General
Unique ID : 184409242983254748111723492442407445465 (0x8ABBEDA59D40C87D9E5ABE26313C23D9)
Complete name : H:VideoThe.Nice.Guys.2016.DD.BDRip.1080p.ExKinoRay.mkv
Format : Matroska
Format version : Version 4 / Version 2
File size : 12.5 GiB
Duration : 1 h 55 min
Overall bit rate : 15.5 Mb/s
Movie name : ***селезень***
Encoded date : UTC 2016-09-30 23:03:21
Writing application : mkvmerge v8.3.0 ('Over the Horizon') 64bit
Writing library : libebml v1.3.1 + libmatroska v1.4.2
Video
ID : 1
Format : AVC
Format/Info : Advanced Video Codec
Format profile : High@L4.1
Format settings, CABAC : Yes
Format settings, ReFrames : 5 frames
Codec ID : V_MPEG4/ISO/AVC
Duration : 1 h 55 min
Bit rate : 13.3 Mb/s
Width : 1 920 pixels
Height : 800 pixels
Display aspect ratio : 2.40:1
Frame rate mode : Constant
Frame rate : 23.976 (24000/1001) FPS
Color space : YUV
Chroma subsampling : 4:2:0
Bit depth : 8 bits
Scan type : Progressive
Bits/(Pixel*Frame) : 0.361
Stream size : 10.8 GiB (86%)
Title : ***селезень***
Writing library : x264 core 129 r2245 bc13772
Encoding settings : cabac=1 / ref=5 / deblock=1:-3:-3 / analyse=0x3:0x133 / me=umh / subme=11 / psy=1 / psy_rd=1.05:0.05 / mixed_ref=1 / me_range=64 / chroma_me=1 / trellis=2 / 8x8dct=1 / cqm=0 / deadzone=21,11 / fast_pskip=0 / chroma_qp_offset=-3 / threads=12 / lookahead_threads=2 / sliced_threads=0 / nr=0 / decimate=1 / interlaced=0 / bluray_compat=0 / constrained_intra=0 / bframes=8 / b_pyramid=2 / b_adapt=2 / b_bias=0 / direct=3 / weightb=1 / open_gop=0 / weightp=2 / keyint=250 / keyint_min=23 / scenecut=40 / intra_refresh=0 / rc_lookahead=60 / rc=2pass / mbtree=1 / bitrate=13306 / ratetol=1.0 / qcomp=0.60 / qpmin=0 / qpmax=69 / qpstep=4 / cplxblur=20.0 / qblur=0.5 / vbv_maxrate=40000 / vbv_bufsize=30000 / nal_hrd=none / ip_ratio=1.40 / aq=1:0.80
Language : English
Default : Yes
Forced : No
Audio #1
ID : 2
Format : AC-3
Format/Info : Audio Coding 3
Mode extension : CM (complete main)
Format settings, Endianness : Big
Codec ID : A_AC3
Duration : 1 h 55 min
Bit rate mode : Constant
Bit rate : 640 kb/s
Channel(s) : 6 channels
Channel positions : Front: L C R, Side: L R, LFE
Sampling rate : 48.0 kHz
Frame rate : 31.250 FPS (1536 spf)
Compression mode : Lossy
Stream size : 530 MiB (4%)
Title : Dub [License]
Language : Russian
Default : Yes
Forced : No
Audio #2
ID : 3
Format : DTS
Format/Info : Digital Theater Systems
Mode : 16
Format settings, Endianness : Big
Codec ID : A_DTS
Duration : 1 h 55 min
Bit rate mode : Constant
Bit rate : 1 509 kb/s
Channel(s) : 6 channels
Channel positions : Front: L C R, Side: L R, LFE
Sampling rate : 48.0 kHz
Frame rate : 93.750 FPS (512 spf)
Bit depth : 24 bits
Compression mode : Lossy
Stream size : 1.22 GiB (10%)
Title : Original
Language : English
Default : No
Forced : No
Text #1
ID : 4
Format : UTF-8
Codec ID : S_TEXT/UTF8
Codec ID/Info : UTF-8 Plain Text
Duration : 1 h 47 min
Bit rate : 115 b/s
Count of elements : 1806
Stream size : 91.2 KiB (0%)
Title : Full
Language : Russian
Default : No
Forced : No
Text #2
ID : 5
Format : UTF-8
Codec ID : S_TEXT/UTF8
Codec ID/Info : UTF-8 Plain Text
Duration : 1 h 47 min
Bit rate : 71 b/s
Count of elements : 1898
Stream size : 56.5 KiB (0%)
Title : Full
Language : English
Default : No
Forced : No
Text #3
ID : 6
Format : UTF-8
Codec ID : S_TEXT/UTF8
Codec ID/Info : UTF-8 Plain Text
Duration : 1 h 55 min
Bit rate : 72 b/s
Count of elements : 2078
Stream size : 61.6 KiB (0%)
Title : SDH
Language : English
Default : No
Forced : No
Menu
00:00:00.000 : en:00:00:00.000
00:04:33.190 : en:00:04:33.190
00:07:24.235 : en:00:07:24.235
00:12:07.435 : en:00:12:07.435
00:16:39.790 : en:00:16:39.790
00:22:47.616 : en:00:22:47.616
00:24:59.623 : en:00:24:59.623
00:30:18.233 : en:00:30:18.233
00:35:29.794 : en:00:35:29.794
00:41:32.990 : en:00:41:32.990
00:45:20.051 : en:00:45:20.051
00:51:35.676 : en:00:51:35.676
00:54:11.039 : en:00:54:11.039
00:57:40.123 : en:00:57:40.123
01:04:18.521 : en:01:04:18.521
01:09:18.988 : en:01:09:18.988
01:12:46.279 : en:01:12:46.279
01:18:07.391 : en:01:18:07.391
01:23:20.245 : en:01:23:20.245
01:27:34.749 : en:01:27:34.749
01:32:15.947 : en:01:32:15.947
01:36:40.461 : en:01:36:40.461
01:40:12.590 : en:01:40:12.590
01:43:14.814 : en:01:43:14.814

Автор релиза:
[Профиль] [ЛС]
Показать сообщения:    

Текущее время: Сегодня 22:37

Часовой пояс: GMT



Вы не можете начинать темы
Вы не можете отвечать на сообщения
Вы не можете редактировать свои сообщения
Вы не можете удалять свои сообщения
Вы не можете голосовать в опросах
Вы не можете прикреплять файлы к сообщениям
Вы не можете скачивать файлы