Славные парни / The Nice Guys (2016) BDRip 720p | iTunes

 
Автор Сообщение

Russian Mafia ®

Пол:

Стаж: 1 год 8 месяцев

Сообщений: 4257



Награды: 10 (Подробнее)

Top Releaser 2 (Количество: 1) Mega Seeder 5 (Количество: 1) За внесенный вклад в развитие сайта (Количество: 1)
Торрент-статистика

Создавать темы 09-Авг-2016 02:24

[Цитировать]

Информация о фильме
Название: Славные парни
Оригинальное название: The Nice Guys
Год выхода: 2016
Жанр: Криминал, комедия
Режиссер: Шейн Блэк
В ролях: Райан Гослинг, Ким Бейсингер, Рассел Кроу, Энгаури Райс, Мэтт Бомер, Маргарет Куэлли, Йайа ДаКоста, Кит Дэвид, Бо Напп, Лоис Смит
О фильме: Что бывает, когда напарником брутального костолома становится субтильный лопух? Наемный охранник Джексон Хили и частный детектив Холланд Марч вынуждены работать в паре, чтобы распутать плевое дело о пропавшей девушке, которое оборачивается преступлением века. Смогут ли парни разгадать сложный ребус, если у каждого из них - свои, весьма индивидуальные, методы...


Выпущено: Великобритания, США / Bloom, Lip Sync Productions, Misty Mountains
Продолжительность:01:55:57
Перевод: Дублированный [iTunes]
Файл
Формат: MKV
Качество: BDRip 720p
Видео: MPEG-4 AVC, 7500 kb/s, 1280x534
Аудио: Russian: AC3, 384 kb/s (6 ch) / English: DTS, 1509 kb/s (6 ch)
Субтитры: English

MI

x264 [info]: frame I:2065 Avg QP:10.60 size:161970
x264 [info]: frame P:42022 Avg QP:12.89 size: 70207
x264 [info]: frame B:122718 Avg QP:15.00 size: 26337
x264 [info]: consecutive B-frames: 3.2% 5.5% 7.4% 45.1% 12.2% 21.1% 5.5%
=================================================
Общее
Уникальный идентификатор : 237977814541455873747357191271553946833 (0xB308DC233A204955B75422703943D4D1)
Полное имя : D:загрузкиThe.Nice.Guys.2016.D.BluRay.720p.mkv
Формат : Matroska
Версия формата : Version 4 / Version 2
Размер файла : 7,60 Гбайт
Продолжительность : 1 ч. 55 м.
Общий поток : 9389 Кбит/сек
Дата кодирования : UTC 2016-08-09 00:29:47
Программа кодирования : mkvmerge v8.3.0 ('Over the Horizon') 64bit
Библиотека кодирования : libebml v1.3.1 + libmatroska v1.4.2
Видео
Идентификатор : 1
Формат : AVC
Формат/Информация : Advanced Video Codec
Профиль формата : High@L4.1
Параметр CABAC формата : Да
Параметр ReFrames формата : 12 кадров
Идентификатор кодека : V_MPEG4/ISO/AVC
Продолжительность : 1 ч. 55 м.
Битрейт : 7500 Кбит/сек
Ширина : 1280 пикселей
Высота : 534 пикселя
Соотношение сторон : 2,40:1
Режим частоты кадров : Постоянный
Частота кадров : 23,976 кадра/сек
Цветовое пространство : YUV
Субдискретизация насыщенности : 4:2:0
Битовая глубина : 8 бит
Тип развёртки : Прогрессивная
Бит/(Пиксели*Кадры) : 0.458
Размер потока : 5,92 Гбайт (78%)
Библиотека кодирования : x264 core 142 r2431+42 c69a006 tMod [8-bit@all X86]
Настройки программы : cabac=1 / ref=12 / deblock=1:0:0 / analyse=0x3:0x113 / me=umh / subme=10 / psy=1 / fade_compensate=0.00 / psy_rd=1.05:0.10 / mixed_ref=1 / me_range=32 / chroma_me=1 / trellis=2 / 8x8dct=1 / cqm=0 / deadzone=21,11 / fast_pskip=0 / chroma_qp_offset=-2 / threads=12 / lookahead_threads=1 / sliced_threads=0 / nr=0 / decimate=1 / interlaced=0 / bluray_compat=0 / constrained_intra=0 / fgo=0 / bframes=6 / b_pyramid=2 / b_adapt=2 / b_bias=0 / direct=3 / weightb=1 / open_gop=0 / weightp=2 / keyint=250 / keyint_min=23 / scenecut=40 / intra_refresh=0 / rc=2pass / mbtree=0 / bitrate=7500 / ratetol=1.0 / qcomp=0.70 / qpmin=0:0:0 / qpmax=69:69:69 / qpstep=4 / cplxblur=20.0 / qblur=0.5 / ip_ratio=1.40 / pb_ratio=1.30 / aq=2:1.00 / aq-sensitivity=10.00 / aq-factor=1.00:1.00:1.00 / aq2=0 / aq3=0
Default : Да
Forced : Нет
Аудио #1
Идентификатор : 2
Формат : AC-3
Формат/Информация : Audio Coding 3
Расширение режима : CM (complete main)
Параметр Endianness формата : Big
Идентификатор кодека : A_AC3
Продолжительность : 1 ч. 55 м.
Вид битрейта : Постоянный
Битрейт : 384 Кбит/сек
Каналы : 6 каналов
Расположение каналов : Front: L C R, Side: L R, LFE
Частота : 48,0 КГц
Битовая глубина : 16 бит
Метод сжатия : С потерями
Размер потока : 318 Мбайт (4%)
Заголовок : iTunes
Язык : Russian
Default : Да
Forced : Нет
Аудио #2
Идентификатор : 3
Формат : DTS
Формат/Информация : Digital Theater Systems
Режим : 16
Параметр Endianness формата : Big
Идентификатор кодека : A_DTS
Продолжительность : 1 ч. 55 м.
Вид битрейта : Постоянный
Битрейт : 1509 Кбит/сек
Каналы : 6 каналов
Расположение каналов : Front: L C R, Side: L R, LFE
Частота : 48,0 КГц
Битовая глубина : 24 бит
Метод сжатия : С потерями
Размер потока : 1,22 Гбайт (16%)
Язык : English
Default : Нет
Forced : Нет
Текст
Идентификатор : 4
Формат : UTF-8
Идентификатор кодека : S_TEXT/UTF8
Идентификатор кодека/Информация : UTF-8 Plain Text
Язык : English
Default : Нет
Forced : Нет
Меню
00:00:00.000 : en:00:00:00.000
00:10:41.683 : en:00:10:41.683
00:21:07.308 : en:00:21:07.308
00:29:12.876 : en:00:29:12.876
00:40:12.744 : en:00:40:12.744
00:50:50.464 : en:00:50:50.464
01:01:02.033 : en:01:01:02.033
01:10:15.420 : en:01:10:15.420
01:19:59.086 : en:01:19:59.086
01:29:40.709 : en:01:29:40.709
01:40:10.338 : en:01:40:10.338
01:48:35.801 : en:01:48:35.801
01:50:49.977 : en:01:50:49.977

Скриншоты




[Профиль] [ЛС]
Показать сообщения:    

Текущее время: Сегодня 21:32

Часовой пояс: GMT



Вы не можете начинать темы
Вы не можете отвечать на сообщения
Вы не можете редактировать свои сообщения
Вы не можете удалять свои сообщения
Вы не можете голосовать в опросах
Вы не можете прикреплять файлы к сообщениям
Вы не можете скачивать файлы