Скрытое / Undercover [S01] (2016) HDTVRip | L1

 
Автор Сообщение

достали все ®

Пол:

Стаж: 1 год 8 месяцев

Сообщений: 6581



Награды: 12 (Подробнее)

Top Releaser 3 (Количество: 1) Mega Seeder 3 (Количество: 1) Mega Seeder 4 (Количество: 1)
Торрент-статистика

Создавать темы 03-Июн-2016 09:40

[Цитировать]

Скрытое / Undercover
Страна: Великобритания
Производство: BBC America, Grafton House Productions
Год выпуска: 2016
Жанр: триллер, драма
Сезон: 1
Серии: 1-6 (из 6)
Продолжительность: х ~01:00:00
Режиссеры: Джеймс Хоуз, Джим О’Хенлон
Автор сценария: Питер Моффат
В ролях: Адриан Лестер, Шеннон Хэйес, Тамара Лоуренс, Дерек Ридделл, Винсент Риган, Софи Оконедо, Алистэр Петри, Деннис Хейсбёрт
Описание: Сюжет сериала показывает довольно мрачное будущее. Загадочные создания из страниц книжных мифов проникли в наш реальный мир, и покорили его себе. Теперь люди объединяются в группу и вынуждены искать убежище для того, что бы защититься от врага. Главные герои два брата, которые уже очень давно практически не общаются и являются врагами, но общее горе заставляет их объединиться...

Перевод: Любительский (одноголосый, закадровый) | Project_Web_Mania
Субтитры: нет-Качество: HDTVRip
Формат: AVI
Видео кодек: XviD
Аудио кодек: АС3
Видео: 720x400 (16:9), 30.000 fps, XviD ~864 kbps avg
Аудио: 44.1 kHz, AC3 Dolby Digital, 2/0 (L,R) ch, ~192 kbps
Дата премьеры (мир): 3 апреля 2016

Media Info

General
Format : AVI
Format/Info : Audio Video Interleave
Overall bit rate : 1 067 Kbps
Writing application : Lavf57.25.100
Video
ID : 0
Format : MPEG-4 Visual
Format profile : Advanced Simple@L5
Format settings, BVOP : 2
Format settings, QPel : No
Format settings, GMC : No warppoints
Format settings, Matrix : Default (MPEG)
Codec ID : XVID
Codec ID/Hint : XviD
Bit rate : 864 Kbps
Width : 720 pixels
Height : 400 pixels
Display aspect ratio : 16:9
Frame rate : 25.000 fps
Color space : YUV
Chroma subsampling : 4:2:0
Bit depth : 8 bits
Scan type : Progressive
Compression mode : Lossy
Bits/(Pixel*Frame) : 0.120
Stream size : 6.21 MiB (81%)
Writing library : XviD 1.2.1 (UTC 2008-12-04)
Audio
ID : 1
Format : AC-3
Format/Info : Audio Coding 3
Mode extension : CM (complete main)
Format settings, Endianness : Big
Codec ID : 2000
Bit rate mode : Constant
Bit rate : 192 Kbps
Channel(s) : 2 channels
Channel positions : Front: L R
Sampling rate : 44.1 KHz
Bit depth : 16 bits
Compression mode : Lossy
Delay relative to video : 41ms
Stream size : 1.38 MiB (18%)
Alignment : Split accross interleaves
Interleave, duration : 35 ms (0.87 video frame)
Interleave, preload duration : 6 ms

Скриншоты

[Профиль] [ЛС]
Кто просматривает тему:

Форум Тема Автор Размер
BBC BBC: Операция Стоунхендж. Тайна, скрытая под камнями / Operation Stonehenge: What Lies Beneath [серии 1-2 из 2] (Джереми Тернер / Jeremy Turner) [2014 г., Документально-постановочный, история,... skorpionN 3.27 GB
Viasat History Viasat History: Скрытые угрозы / Hidden Killers [сезон 1 серии 1-4 из 4] (Сюзанна Филлипс) [2013 г., Документальный, история, SATRip] skorpionN 3.29 GB
Отечественные cериалы Агентство скрытых камер [01-10 из 10] (2016) HDTV 1080i достали все 18.74 GB
Отечественные cериалы Агентство скрытых камер [01-10 из 10] (2016) HDTVRip достали все 3.91 GB
Документальные HD Дельфины скрытой камерой / Dolphin\'s spy in the pod (Джон Даунер / John Downer) [2014, Великобритания, документальный, природа, Blu-ray Disc (Custom) 1080i] VO + Sub Rus, Eng + Original Eng TorrentFilm 20.36 GB
Фильмы (DVD 5/9) Звездные войны: эпизод 1 - Скрытая угроза / Star Wars: Episode I - The Phantom Menace (Джордж Лукас / George Lucas) [1999, США, приключения, фантастика, фэнтези, боевик, DVD9] MVO + AVO (Гаврилов) +... sergej644 7.65 GB
Фильмы (HD Rips | 720p, 1080p) Звездные войны: Эпизод 1 – Скрытая угроза / Star Wars: Episode I - The Phantom Menace (1999) BDRip 720p Russian Mafia 3.38 GB
Фильмы (HD Rips | 720p, 1080p) Звездные войны: Эпизод 1 – Скрытая угроза / Star Wars: Episode I - The Phantom Menace (1999) BDRip 720p | D, P, P2, A Russian Mafia 8.39 GB
Показать сообщения:    

Текущее время: Сегодня 12:15

Часовой пояс: GMT



Вы не можете начинать темы
Вы не можете отвечать на сообщения
Вы не можете редактировать свои сообщения
Вы не можете удалять свои сообщения
Вы не можете голосовать в опросах
Вы не можете прикреплять файлы к сообщениям
Вы не можете скачивать файлы