Скрипка пионера (Борис Степанцев) [1971, мультфильм, DVDRip] Eng hardsub

 
Автор Сообщение

TorrentFilm ®

Пол:

Стаж: 2 года

Сообщений: 7741



Награды: Нет

Торрент-статистика

Создавать темы 12-Окт-2015 00:10

[Цитировать]

Скрипка пионера- Страна: СССР
Жанр: мультфильм
Продолжительность: 00:07:46
Год выпуска: 1971
Русские субтитры: нет-Режиссёры: Борис Степанцев- | Релиз: -Описание: Рассказ о подвиге юного героя, отдавшего жизнь во имя Родины.-Качество: DVDRip
Формат: AVI
Видео: 608x480 (1.27:1), 25 fps, XviD MPEG-4 ~1828 kbps avg, 0.25 bit/pixel
Аудио: 48 kHz, AC3 Dolby Digital, 2/0 (L,R) ch, ~224 kbps
Субтитры: английские вшитые (hardsub)

MediaInfo

GeneralComplete name : Скрипка пионера.1971.XviD.AC3-rutracker.aviFormat : AVIFormat/Info : Audio Video InterleaveFile size : 115 MiBDuration : 7mn 46sOverall bit rate : 2 062 KbpsMovie name : Скрипка пионера.1971.XviD.AC3-rutrackerWriting application : VirtualDubMod 1.5.10.2 (build 2542/release)Comment : РГ Мультфильмы / Rutracker.org
VideoID : 0Format : MPEG-4 VisualFormat profile : Advanced Simple@L5Format settings, BVOP : 2Format settings, QPel : NoFormat settings, GMC : No warppointsFormat settings, Matrix : CustomCodec ID : XVIDCodec ID/Hint : XviDDuration : 7mn 46sBit rate : 1 828 KbpsWidth : 608 pixelsHeight : 480 pixelsDisplay aspect ratio : 5:4Frame rate : 25.000 fpsColor space : YUVChroma subsampling : 4:2:0Bit depth : 8 bitsScan type : ProgressiveCompression mode : LossyBits/(Pixel*Frame) : 0.251Stream size : 102 MiB (89%)Writing library : XviD 65
AudioID : 1Format : AC-3Format/Info : Audio Coding 3Mode extension : CM (complete main)Format settings, Endianness : BigCodec ID : 2000Duration : 7mn 46sBit rate mode : ConstantBit rate : 224 KbpsChannel(s) : 2 channelsChannel positions : Front: L RSampling rate : 48.0 KHzCompression mode : LossyStream size : 12.5 MiB (11%)Alignment : Split accross interleavesInterleave, duration : 40 ms (1.00 video frame)Interleave, preload duration : 500 ms

Скриншоты

[Профиль] [ЛС]
Показать сообщения:    

Текущее время: Сегодня 02:14

Часовой пояс: GMT



Вы не можете начинать темы
Вы не можете отвечать на сообщения
Вы не можете редактировать свои сообщения
Вы не можете удалять свои сообщения
Вы не можете голосовать в опросах
Вы не можете прикреплять файлы к сообщениям
Вы не можете скачивать файлы