Скорпион / Scorpion (Жюльен Сери / Julien Seri) [2007, Франция, Драма, криминал, спорт, HDRip] VO (Sergio Conceisao)

 
Автор Сообщение

TorrentFilm ®

Пол:

Стаж: 1 год 11 месяцев

Сообщений: 7741



Награды: Нет

Торрент-статистика

Создавать темы 16-Апр-2015 00:04

[Цитировать]

Скорпион / Scorpion- Страна: Франция
Жанр: Драма, криминал, спорт
Год выпуска: 2007
Продолжительность: 01:34:10-Перевод: Одноголосый закадровый [Sergio Conceisao]
Cубтитры: нет-Режиссер: Жюльен Сери / Julien Seri-В ролях: Кловис Корнийяк, Франсис Рено, Кароль Роше, Кэролайн Пруст, Оливье Маршаль, Тони Харрисон, Жером Ле Баннер, Хичам Наззал, Пьер Берьо, Титуан Лапорте-Описание: Тайский боксер Анджело, был внезапно снят с соревнования за чемпионский титул своим тренером. Вечером в уличной драке, он случайно убивает своего соперника, за что отсидит в тюрьме целых шесть лет. Освободившись, он теряет всякий интерес к жизни, опустившись до нищеты. Но ради любви, он возьмет себя в руки. Поддерживаемый гангстером Маркусом, он возвращается к нелегальным боям без правил. Он становится Скорпионом…- -Sample | IMDB | КиноПоиск-Тип релиза: HDRip [исх. BDRip 720p]
Формат видео: AVI-Видео: 720x384 (1.88:1), 25 fps, XviD build 50, 1990 kbps avg, 0.29 bit/pixel
Аудио: 48 kHz, MPEG Layer 3, 2 ch, 224.00 kbps avg [Russian_VO]-Релиз группы: -

MediaInfo

General
Complete name : D:\Мои релизы\Scorpion_HDRip_RG_All_Films.avi
Format : AVI
Format/Info : Audio Video Interleave
File size : 1.46 GiB
Duration : 1h 34mn
Overall bit rate : 2 224 Kbps
Writing application : VirtualDubMod 1.5.10.3 | www.virtualdub-fr.org || (build 2550/release)
Writing library : VirtualDubMod build 2550/release
Video
ID : 0
Format : MPEG-4 Visual
Format profile : Advanced Simple@L5
Format settings, BVOP : Yes
Format settings, QPel : No
Format settings, GMC : No warppoints
Format settings, Matrix : Custom
Codec ID : XVID
Codec ID/Hint : XviD
Duration : 1h 34mn
Bit rate : 1 991 Kbps
Width : 720 pixels
Height : 384 pixels
Display aspect ratio : 1.875
Frame rate : 25.000 fps
Color space : YUV
Chroma subsampling : 4:2:0
Bit depth : 8 bits
Scan type : Progressive
Compression mode : Lossy
Bits/(Pixel*Frame) : 0.288
Stream size : 1.31 GiB (89%)
Writing library : XviD 1.2.1 (UTC 2008-12-04)
Audio
ID : 1
Format : MPEG Audio
Format version : Version 1
Format profile : Layer 3
Mode : Joint stereo
Mode extension : MS Stereo
Codec ID : 55
Codec ID/Hint : MP3
Duration : 1h 34mn
Bit rate mode : Constant
Bit rate : 224 Kbps
Channel(s) : 2 channels
Sampling rate : 48.0 KHz
Compression mode : Lossy
Stream size : 151 MiB (10%)
Alignment : Aligned on interleaves
Interleave, duration : 40 ms (1.00 video frame)
Interleave, preload duration : 504 ms
Writing library : LAME3.90.3

Скриншоты

[Профиль] [ЛС]

Создавать темы 06-Авг-2015 22:37 (спустя 3 месяца 20 дней)

Топик был перенесен из форума Фильмы до 2014 года в форум Фильмы до 2012 года
sergej644
 
Показать сообщения:    

Текущее время: Сегодня 02:44

Часовой пояс: GMT



Вы не можете начинать темы
Вы не можете отвечать на сообщения
Вы не можете редактировать свои сообщения
Вы не можете удалять свои сообщения
Вы не можете голосовать в опросах
Вы не можете прикреплять файлы к сообщениям
Вы не можете скачивать файлы