Скоро с тобой случится что-то хорошее / Bekarov, Yikre Lekha Mashehu Tov / Comrade (Эйяль Ширай / Eyal Shiray) [2006, Израиль, драма, DVDRip] DVO (Студия Эльром) + Sub Rus + Original Heb

 
Автор Сообщение

painkiller ®

Стаж: 2 года 3 месяца

Сообщений: 582



Награды: Нет

Торрент-статистика

Создавать темы 18-Авг-2014 14:16

[Цитировать]

Скоро с тобой случится что-то хорошее / Bekarov, Yikre Lekha Mashehu Tov / Comrade
Страна: Израиль
Жанр: драма
Год выпуска: 2006
Продолжительность: 01:15:04
Перевод: Профессиональный (двухголосый закадровый) Студия Эльром
Cубтитры: русские
Оригинальная аудиодорожка: иврит
Режиссер: Эйяль Ширай / Eyal Shiray
В ролях: Адам Хирш, Асси Даян, Тинкербелл
Описание: Илан живет с отцом в одном из сельскохозяйственных поселений. Его мать умерла, а сестра несколько лет назад исчезла из дома. Илан находит письма сестры к нему, которые отец прятал от него все эти годы. Он убегает из дома и едет по указанному на конверте адресу к сестре в Хайфу. Сестра Далия с радостью принимает Илана как самого близкого человека.
Но подростку нечем заняться в этом районе. Он сводит дружбу с Аврамом, странным стариком из соседнего дома, который выращивает марихуану и содержит целый арсенал оружия. Когда-то он был партизаном в Испании и считает себя коммунистом, , хотя его взгляды больше похожи на анархистские. Аврам живет в заброшенном доме и если понадобится готов с кровью отбивать свое право проживания в этом доме.
А тем временем одиночество и переходный возраст Илана сублимируются в отношения к сестре и перерастают в любовное влечение к Далии.
Доп. информация: Огромное спасибо abraka за запись звука с тв.
Субтитры взяты из раздачи galchenka.
За роль в фильме "Скоро с тобой случится что-то хорошее" в 2005 году Асси Даян получил премию Офир за лучшую мужскую роль второго плана.
Сэмпл: http://multi-up.com/965558
Качество видео: DVDRip
Формат видео: AVI
Видео: Xvid 704x384 25.00fps 1786kbps [Video 0]
Аудио: Dolby AC3 48000Hz stereo 192kbps [Audio 1]
Аудио 2: Dolby AC3 48000Hz 6ch 448kbps [Audio 2]
Формат субтитров: softsub (SRT)

Пример субтитров

155
00:25:06,410 --> 00:25:10,010
- Ну, и как это? - Как это, что?
- Быть коммунистом?
156
00:25:10,500 --> 00:25:13,760
- Нет больше коммунистов. Все умерли.
157
00:25:13,760 --> 00:25:16,000
- Но, ведь есть в Кнессете?
- Были когда-то.
158
00:25:16,000 --> 00:25:16,060
- Ты никому ничего не расскажешь, никому!
- Но, ведь есть в Кнессете?
- Были когда-то.
159
00:25:16,060 --> 00:25:20,410
- Ты никому ничего не расскажешь, никому!
160
00:25:20,410 --> 00:25:23,760
- Ладно. - Даже сестре! - О-кей.
- Просто - не был, и не видел.
161
00:25:23,760 --> 00:25:27,370
- Ясно? - Обещаю.
- Тогда приходи завтра.
162
00:25:45,960 --> 00:25:49,650
- Коода она возвращается из плавания?
- Скоро.
163
00:25:51,290 --> 00:25:53,850
- Это подарок от Зохара.
164
00:25:53,850 --> 00:25:58,040
Она это покурит, и оторвется по полной.
- Спасибо.
165
00:26:08,970 --> 00:26:10,440
- Илан!
166
00:26:10,750 --> 00:26:14,960
- Что ты делаешь тут? Все в порядке.
- Конечно! Я тебя жду.
167
00:26:14,960 --> 00:26:17,930
- Милый мой!
168
00:26:17,930 --> 00:26:21,400
- Как дела?
- Нормально.
169
00:26:22,410 --> 00:26:26,630
- Далия, ты идешь? Можешь взять с собой своего брата.
170
00:26:27,550 --> 00:26:30,450
- Я думаю, что мы пойдем домой.
171
00:26:31,600 --> 00:26:34,080
- Потеряешь!
172
00:26:34,080 --> 00:26:36,490
- Да, ладно, в другой раз.
173
00:26:49,340 --> 00:26:53,780
- Ого, ты что, приводил уборщицу?
174
00:26:53,860 --> 00:26:56,480
- Что вдруг!. Это я сам.
175
00:26:56,480 --> 00:26:58,950
А это тебе подарок.
176
00:26:59,720 --> 00:27:03,290
- Что это?
- Это песня, сейчас поставлю.

MediaInfo

Format : AVI
Format/Info : Audio Video Interleave
File size : 1.28 GiB
Duration : 1h 15mn
Overall bit rate : 2 435 Kbps
Writing application : VirtualDubMod 1.5.10.2 (build 2540/release)
Writing library : VirtualDubMod build 2540/release
Video
ID : 0
Format : MPEG-4 Visual
Format profile : Advanced Simple@L5
Format settings, BVOP : No
Format settings, QPel : No
Format settings, GMC : No warppoints
Format settings, Matrix : Custom
Codec ID : XVID
Codec ID/Hint : XviD
Duration : 1h 15mn
Bit rate : 1 787 Kbps
Width : 704 pixels
Height : 384 pixels
Display aspect ratio : 16:9
Frame rate : 25.000 fps
Color space : YUV
Chroma subsampling : 4:2:0
Bit depth : 8 bits
Scan type : Progressive
Compression mode : Lossy
Bits/(Pixel*Frame) : 0.264
Stream size : 959 MiB (73%)
Writing library : XviD 1.2.1 (UTC 2008-12-04)
Audio #1
ID : 1
Format : AC-3
Format/Info : Audio Coding 3
Mode extension : CM (complete main)
Codec ID : 2000
Duration : 1h 15mn
Bit rate mode : Constant
Bit rate : 192 Kbps
Channel(s) : 2 channels
Channel positions : Front: L R
Sampling rate : 48.0 KHz
Bit depth : 16 bits
Compression mode : Lossy
Stream size : 103 MiB (8%)
Alignment : Split accross interleaves
Interleave, duration : 40 ms (1.00 video frame)
Interleave, preload duration : 500 ms
Language : Hebrew
Audio #2
ID : 2
Format : AC-3
Format/Info : Audio Coding 3
Mode extension : CM (complete main)
Codec ID : 2000
Duration : 1h 14mn
Bit rate mode : Constant
Bit rate : 448 Kbps
Channel(s) : 6 channels
Channel positions : Front: L C R, Side: L R, LFE
Sampling rate : 48.0 KHz
Bit depth : 16 bits
Compression mode : Lossy
Delay relative to video : 240ms
Stream size : 237 MiB (18%)
Alignment : Split accross interleaves
Interleave, duration : 41 ms (1.01 video frame)
Interleave, preload duration : 500 ms

Скриншоты




[Профиль] [ЛС]

Создавать темы 06-Авг-2015 23:06 (спустя 11 месяцев 19 дней)

Топик был перенесен из форума Фильмы до 2014 года в форум Фильмы до 2012 года
sergej644
 
Показать сообщения:    

Текущее время: Сегодня 08:27

Часовой пояс: GMT



Вы не можете начинать темы
Вы не можете отвечать на сообщения
Вы не можете редактировать свои сообщения
Вы не можете удалять свои сообщения
Вы не можете голосовать в опросах
Вы не можете прикреплять файлы к сообщениям
Вы не можете скачивать файлы