Скорость 2: Контроль над круизом / Speed 2: Cruise Control (1997) BDRip 1080p от NNNB | P

 
Автор Сообщение

sergej644 ®

Пол:

Стаж: 4 года 11 месяцев

Сообщений: 6043

Откуда: Soviet Union



Награды: Нет

Торрент-статистика

Создавать темы 02-Сен-2014 14:40

[Цитировать]

-Скорость 2: Контроль над круизом / Speed 2: Cruise Control
Информация о фильме
Русское название: Скорость 2: Контроль над круизом
Оригинальное название: Speed 2: Cruise Control
Год выхода: 1997
Жанр: Боевик, триллер, мелодрама
Режиссер: Ян де Бонт
Выпущено: США
Продолжительность: 02:05:10
Перевод: Профессиональный (Многоголосый, закадровый)
В ролях: Сандра Буллок, Джейсон Патрик, Уиллем Дефо, Темуэра Моррисон, Брайан МакКарди, Кристин Фиркинс, Майкл Дж. Хэгерти, Коллин Кэмп, Лоис Чайлз, Френсис Гуинан-Сюжет фильма
Энни предупредила своего нового ухажера, что на ее долю хватит приключений, подобных тому, что ей пришлось пережить в первом фильме, и тот соврал, что работает пляжным полицейским, не разрешая молодежи курить и мусорить.
Очень скоро правда всплывает на поверхность и она узнает, что на самом деле парень работает в спецотряде и выполняет чрезвычайно опасные задания. Чтобы загладить свою вину, он приглашает Энни в развлекательную поездку на роскошном круизном лайнере по Карибскому морю.
Как на грех на этом лайнере оказывается слегка свихнувшийся компьютерщик, которому фирма, построившая лайнер, не начислила в полной мере зарплату. Систему управления он знает как свои пять пальцев и терпеть произвол акул капитализма не намерен…-Файл
Качество: BDRip 1080p (исходник Blu-ray Disc Remux)
Видео: 1920x798, 7785 Кбит/сек, 23,976 кадр/сек, AVC, x264, High@L4.1, 2.40:1, 0.212 Бит/[Пиксели*Кадры]
Аудио 1: AC-3, 448 Кбит/сек, 6 канала(ов), 48,0 КГц - Многоголосый закадровый / Русский
Аудио 2: AC-3, 640 Кбит/сек, 6 канала(ов), 48,0 КГц - Оригинал / Английский
Субтитры: Русские | Полные, Английские | Полные
Форсированные субтитры: Нет
Чаптеры (Главы): Есть-
-

MediaInfo

Format : Matroska
Format version : Version 2
File size : 7.74 GiB
Duration : 2h 5mn
Overall bit rate : 8 857 Kbps
Movie name : Скорость 2 Контроль над круизом.(1997).BDRip.1080p.[envy]
Encoded date : UTC 2014-09-01 16:39:13
Writing application : mkvmerge v5.8.0 ('No Sleep / Pillow') built on Sep 2 2012 15:37:04
Writing library : libebml v1.2.3 + libmatroska v1.3.0
Video
ID : 1
Format : AVC
Format/Info : Advanced Video Codec
Format profile : High@L4.1
Format settings, CABAC : Yes
Format settings, ReFrames : 5 frames
Codec ID : V_MPEG4/ISO/AVC
Duration : 2h 5mn
Bit rate : 7 785 Kbps
Width : 1 920 pixels
Height : 798 pixels
Display aspect ratio : 2.40:1
Frame rate mode : Constant
Frame rate : 23.976 fps
Color space : YUV
Chroma subsampling : 4:2:0
Bit depth : 8 bits
Scan type : Progressive
Bits/(Pixel*Frame) : 0.212
Stream size : 6.64 GiB (86%)
Title : Скорость 2 Контроль над круизом.(1997).BDRip.1080p.[envy]
Writing library : x264 core 142 r2453 ea0ca51
Encoding settings : cabac=1 / ref=5 / deblock=1:-3:-3 / analyse=0x3:0x113 / me=umh / subme=11 / psy=1 / psy_rd=1.00:0.00 / mixed_ref=1 / me_range=32 / chroma_me=1 / trellis=2 / 8x8dct=1 / cqm=0 / deadzone=21,11 / fast_pskip=0 / chroma_qp_offset=-2 / threads=12 / lookahead_threads=1 / sliced_threads=0 / nr=0 / decimate=1 / interlaced=0 / bluray_compat=0 / constrained_intra=0 / bframes=6 / b_pyramid=2 / b_adapt=2 / b_bias=0 / direct=3 / weightb=1 / open_gop=0 / weightp=2 / keyint=240 / keyint_min=23 / scenecut=40 / intra_refresh=0 / rc=2pass / mbtree=0 / bitrate=7785 / ratetol=2.0 / qcomp=0.60 / qpmin=0 / qpmax=69 / qpstep=4 / cplxblur=20.0 / qblur=0.5 / ip_ratio=1.40 / pb_ratio=1.30 / aq=2:0.80
Language : English
Default : Yes
Forced : No
Audio #1
ID : 2
Format : AC-3
Format/Info : Audio Coding 3
Mode extension : CM (complete main)
Format settings, Endianness : Big
Codec ID : A_AC3
Duration : 2h 5mn
Bit rate mode : Constant
Bit rate : 448 Kbps
Channel(s) : 6 channels
Channel positions : Front: L C R, Side: L R, LFE
Sampling rate : 48.0 KHz
Bit depth : 16 bits
Compression mode : Lossy
Stream size : 401 MiB (5%)
Title : MVO
Language : Russian
Default : Yes
Forced : No
Audio #2
ID : 3
Format : AC-3
Format/Info : Audio Coding 3
Mode extension : CM (complete main)
Format settings, Endianness : Big
Codec ID : A_AC3
Duration : 2h 5mn
Bit rate mode : Constant
Bit rate : 640 Kbps
Channel(s) : 6 channels
Channel positions : Front: L C R, Side: L R, LFE
Sampling rate : 48.0 KHz
Bit depth : 16 bits
Compression mode : Lossy
Stream size : 573 MiB (7%)
Title : Eng
Language : English
Default : No
Forced : No
Text #1
ID : 4
Format : UTF-8
Codec ID : S_TEXT/UTF8
Codec ID/Info : UTF-8 Plain Text
Title : full
Language : Russian
Default : No
Forced : No
Text #2
ID : 5
Format : UTF-8
Codec ID : S_TEXT/UTF8
Codec ID/Info : UTF-8 Plain Text
Title : full
Language : English
Default : No
Forced : No
Menu
00:00:00.000 : :Chapter 01
00:00:57.974 : :Chapter 02
00:01:50.193 : :Chapter 03
00:06:46.739 : :Chapter 04
00:09:10.550 : :Chapter 05
00:14:39.003 : :Chapter 06
00:16:03.212 : :Chapter 07
00:20:29.144 : :Chapter 08
00:25:15.639 : :Chapter 09
00:28:27.747 : :Chapter 10
00:32:22.398 : :Chapter 11
00:37:16.150 : :Chapter 12
00:40:35.516 : :Chapter 13
00:44:36.131 : :Chapter 14
00:52:38.613 : :Chapter 15
00:55:12.726 : :Chapter 16
00:58:46.147 : :Chapter 17
01:05:23.920 : :Chapter 18
01:08:47.832 : :Chapter 19
01:12:48.530 : :Chapter 20
01:15:51.380 : :Chapter 21
01:18:48.724 : :Chapter 22
01:21:49.821 : :Chapter 23
01:24:46.498 : :Chapter 24
01:29:00.043 : :Chapter 25
01:31:54.050 : :Chapter 26
01:35:10.079 : :Chapter 27
01:43:51.892 : :Chapter 28
01:47:56.887 : :Chapter 29
01:53:00.565 : :Chapter 30
01:55:45.647 : :Chapter 31
01:57:01.806 : :Chapter 32
--
[Профиль] [ЛС]
Показать сообщения:    

Текущее время: Сегодня 04:23

Часовой пояс: GMT



Вы не можете начинать темы
Вы не можете отвечать на сообщения
Вы не можете редактировать свои сообщения
Вы не можете удалять свои сообщения
Вы не можете голосовать в опросах
Вы не можете прикреплять файлы к сообщениям
Вы не можете скачивать файлы