Скорость / Speed (1994) BDRip 720p by msltel | D, P, P2, A, L1

 
Автор Сообщение

sergej644 ®

Пол:

Стаж: 4 года 11 месяцев

Сообщений: 6038

Откуда: Soviet Union



Награды: Нет

Торрент-статистика

Создавать темы 10-Фев-2015 09:21

[Цитировать]

Год выпуска: 1994
Страна: США
Жанр: Боевик, триллер
Продолжительность: 01:55:57
Перевод: Дублированный, профессиональный многоголосый, профессиональный двухголосый, авторский, любительский одноголосый
Субтитры: русские (2 варианта), английские (все отдельно)
Режиссёр: Ян Де Бонт
В ролях: Киану Ривз, Дэннис Хоппер, Сандра Баллок, Джо Мортон, Джефф Дэниелс, Алан Рак, Гленн Пламмер, Ричард Лайнбэк, Бет Грант, Хоторн Джеймс
Описание: Представьте себе девушку, у которой на заднем стекле автомобиля красуется наклейка с восклицательным знаком, чайником и странного вида туфлей с подписью "уважай меня". Теперь представьте эту девушку за рулем гигантского американского автобуса, несущегося по городу на огромной скорости в час пик. Выглядит это довольно забавно, если не знать, что автобус заминирован и может взорваться, если стрелка спидометра опустится ниже восьмидесяти километров в час. Пассажиры в панике; события разворачиваются с бешеной скоростью; а времени до взрыва остается всё меньше. На поиски таинственного террориста, который уже доказал серьёзность своих намерений, взорвав переполненный людьми лифт, брошены элитные подразделения полиции. Но время идёт, а выйти на след преступника так и не удаётся. В противоборство с террористом вступает лучший боец спецназа Джек Трейвен. Теперь от того сможет ли он верно распорядиться оставшимися секундами, зависят жизни десятков людей.

Качество: BDRip 720p
Формат: MKV
Видео кодек: H.264
Аудио кодек: AC3, DTS
Видео: 1280x544, 5398 Кбит/с, 23,976 кадра/с, 0.323 bpp
Аудио 1: русский, AC3, 448 kbps, 6 ch, 48 kHz [профессиональный многоголосый, Карусель]
Аудио 2: русский, AC3, 448 kbps, 6 ch, 48 kHz [авторский, Андрей Гаврилов]
Аудио 3: русский, AC3, 448 kbps, 6 ch, 48 kHz [авторский, Василий Горчаков]
Аудио 4: русский, AC3, 448 kbps, 6 ch, 48 kHz [авторский, Юрий Живов]
Отдельные файлы
Аудио: русский, AC3, 192 kbps, 2 ch, 48 kHz [дублированный, студия «Хлопушка», VHS]
Аудио: русский, DTS, 1509 kbps, 6 ch, 48 kHz [профессиональный многоголосый, Карусель]
Аудио: русский, AC3, 448 kbps, 6 ch, 48 kHz [профессиональный многоголосый, 20th Century Fox]
Аудио: русский, AC3, 192 kbps, 2 ch, 48 kHz [профессиональный многоголосый, ОРТ, TVRip]
Аудио: русский, AC3, 192 kbps, 2 ch, 48 kHz [профессиональный двухголосый, Премьер Видео, VHS]
Аудио: русский, DTS, 1509 kbps, 6 ch, 48 kHz [авторский, Андрей Гаврилов]
Аудио: русский, DTS, 1509 kbps, 6 ch, 48 kHz [авторский, Василий Горчаков]
Аудио: русский, DTS, 1509 kbps, 6 ch, 48 kHz [авторский, Юрий Живов]
Аудио: русский, AC3, 192 kbps, 2 ch, 48 kHz [любительский одноголосый, МладоКашкин, VHS]
Аудио: английский, AC3, 448 kbps, 6 ch, 48 kHz [оригинал]
Имеются неименованные главы/чаптеры.

Награды

Оскар, 1995 год
Победитель (2):
Лучший звук
Лучший монтаж звука
Номинации (1):
Лучший монтаж
Премия канала «MTV», 1995 год
Победитель (5):
Лучшая женская роль (Сандра Буллок)
Самая желанная женщина (Сандра Буллок)
Лучший злодей (Деннис Хоппер)
Лучший экранный дуэт (Сандра Буллок, Киану Ривз)
Лучшая экшн-сцена
Номинации (4):
Лучший фильм
Лучшая мужская роль (Киану Ривз)
Самый желанный мужчина (Киану Ривз)
Лучший поцелуй (Сандра Буллок, Киану Ривз)
Британская академия, 1995 год
Победитель (2):
Лучший звук
Лучший монтаж
Номинации (1):
Лучшие визуальные эффекты
Сатурн, 1995 год
Победитель (1):
Лучшая актриса (Сандра Буллок)
Номинации (2):
Лучший режиссер (Ян де Бонт)
Лучший приключенческий фильм, боевик или триллер

MediaInfo

Общее
Полное имя : D:VideoSpeed.1994.BDRip.720pSpeed.1994.AVO.rus.А.Гаврилов.dts
Формат : DTS
Формат/Информация : Digital Theater Systems
Размер файла : 1,22 Гбайт
Продолжительность : 1 ч. 55 м.
Режим общего битрейта : Постоянный
Общий поток : 1509 Кбит/сек
Аудио
Формат : DTS
Формат/Информация : Digital Theater Systems
Режим : 16
Параметр Endianness формата : Big
Продолжительность : 1 ч. 55 м.
Вид битрейта : Постоянный
Битрейт : 1509 Кбит/сек
Каналы : 6 каналов
Расположение каналов : Front: L C R, Side: L R, LFE
Частота : 48,0 КГц
Битовая глубина : 24 бит
Метод сжатия : С потерями
Размер потока : 1,22 Гбайт (100%)
Общее
Полное имя : D:VideoSpeed.1994.BDRip.720pSpeed.1994.AVO.rus.В.Горчаков.dts
Формат : DTS
Формат/Информация : Digital Theater Systems
Размер файла : 1,22 Гбайт
Продолжительность : 1 ч. 55 м.
Режим общего битрейта : Постоянный
Общий поток : 1509 Кбит/сек
Аудио
Формат : DTS
Формат/Информация : Digital Theater Systems
Режим : 16
Параметр Endianness формата : Big
Продолжительность : 1 ч. 55 м.
Вид битрейта : Постоянный
Битрейт : 1509 Кбит/сек
Каналы : 6 каналов
Расположение каналов : Front: L C R, Side: L R, LFE
Частота : 48,0 КГц
Битовая глубина : 24 бит
Метод сжатия : С потерями
Размер потока : 1,22 Гбайт (100%)
Общее
Полное имя : D:VideoSpeed.1994.BDRip.720pSpeed.1994.AVO.rus.Ю.Живов.dts
Формат : DTS
Формат/Информация : Digital Theater Systems
Размер файла : 1,22 Гбайт
Продолжительность : 1 ч. 55 м.
Режим общего битрейта : Постоянный
Общий поток : 1509 Кбит/сек
Аудио
Формат : DTS
Формат/Информация : Digital Theater Systems
Режим : 16
Параметр Endianness формата : Big
Продолжительность : 1 ч. 55 м.
Вид битрейта : Постоянный
Битрейт : 1509 Кбит/сек
Каналы : 6 каналов
Расположение каналов : Front: L C R, Side: L R, LFE
Частота : 48,0 КГц
Битовая глубина : 24 бит
Метод сжатия : С потерями
Размер потока : 1,22 Гбайт (100%)
Общее
Уникальный идентификатор : 198492440736155456399171828077967894451 (0x955440E7A88E9D2A99946A61EA92E7B3)
Полное имя : D:VideoSpeed.1994.BDRip.720pSpeed.1994.BDRip.720p.mkv
Формат : Matroska
Версия формата : Version 4 / Version 2
Размер файла : 5,94 Гбайт
Продолжительность : 1 ч. 55 м.
Общий поток : 7336 Кбит/сек
Дата кодирования : UTC 2014-10-03 03:55:05
Программа кодирования : mkvmerge v6.9.1 ('Blue Panther') 64bit built on Apr 18 2014 18:23:38
Библиотека кодирования : libebml v1.3.0 + libmatroska v1.4.1
Видео
Идентификатор : 1
Формат : AVC
Формат/Информация : Advanced Video Codec
Профиль формата : High@L4.1
Параметр CABAC формата : Да
Параметр ReFrames формата : 9 кадров
Идентификатор кодека : V_MPEG4/ISO/AVC
Продолжительность : 1 ч. 55 м.
Битрейт : 5398 Кбит/сек
Ширина : 1280 пикселей
Высота : 544 пикселя
Соотношение сторон : 2,35:1
Режим частоты кадров : Постоянный
Частота кадров : 23,976 кадра/сек
Цветовое пространство : YUV
Субдискретизация насыщенности : 4:2:0
Битовая глубина : 8 бит
Тип развёртки : Прогрессивная
Бит/(Пиксели*Кадры) : 0.323
Размер потока : 4,37 Гбайт (74%)
Заголовок : BDRip -- STarankov
Библиотека кодирования : x264 core 142 r2431 ac76440
Настройки программы : cabac=1 / ref=9 / deblock=1:-1:-1 / analyse=0x3:0x113 / me=umh / subme=10 / psy=1 / psy_rd=1.00:0.15 / mixed_ref=1 / me_range=32 / chroma_me=1 / trellis=2 / 8x8dct=1 / cqm=0 / deadzone=21,11 / fast_pskip=0 / chroma_qp_offset=-3 / threads=6 / lookahead_threads=1 / sliced_threads=0 / nr=0 / decimate=1 / interlaced=0 / bluray_compat=0 / constrained_intra=0 / bframes=8 / b_pyramid=2 / b_adapt=2 / b_bias=0 / direct=1 / weightb=1 / open_gop=0 / weightp=2 / keyint=230 / keyint_min=23 / scenecut=40 / intra_refresh=0 / rc_lookahead=40 / rc=crf / mbtree=0 / crf=19.0 / qcomp=0.60 / qpmin=0 / qpmax=69 / qpstep=4 / vbv_maxrate=40000 / vbv_bufsize=50000 / crf_max=0.0 / nal_hrd=none / filler=0 / ip_ratio=1.40 / pb_ratio=1.30 / aq=1:1.00
Язык : English
Default : Да
Forced : Нет
Аудио #1
Идентификатор : 2
Формат : AC-3
Формат/Информация : Audio Coding 3
Расширение режима : CM (complete main)
Параметр Endianness формата : Big
Идентификатор кодека : A_AC3
Продолжительность : 1 ч. 55 м.
Вид битрейта : Постоянный
Битрейт : 448 Кбит/сек
Каналы : 6 каналов
Расположение каналов : Front: L C R, Side: L R, LFE
Частота : 48,0 КГц
Битовая глубина : 16 бит
Метод сжатия : С потерями
Размер потока : 372 Мбайт (6%)
Заголовок : MVO (Карусель)
Язык : Russian
Default : Да
Forced : Нет
Аудио #2
Идентификатор : 3
Формат : AC-3
Формат/Информация : Audio Coding 3
Расширение режима : CM (complete main)
Параметр Endianness формата : Big
Идентификатор кодека : A_AC3
Продолжительность : 1 ч. 55 м.
Вид битрейта : Постоянный
Битрейт : 448 Кбит/сек
Каналы : 6 каналов
Расположение каналов : Front: L C R, Side: L R, LFE
Частота : 48,0 КГц
Битовая глубина : 16 бит
Метод сжатия : С потерями
Размер потока : 372 Мбайт (6%)
Заголовок : AVO (Андрей Гаврилов)
Язык : Russian
Default : Нет
Forced : Нет
Аудио #3
Идентификатор : 4
Формат : AC-3
Формат/Информация : Audio Coding 3
Расширение режима : CM (complete main)
Параметр Endianness формата : Big
Идентификатор кодека : A_AC3
Продолжительность : 1 ч. 55 м.
Вид битрейта : Постоянный
Битрейт : 448 Кбит/сек
Каналы : 6 каналов
Расположение каналов : Front: L C R, Side: L R, LFE
Частота : 48,0 КГц
Битовая глубина : 16 бит
Метод сжатия : С потерями
Размер потока : 372 Мбайт (6%)
Заголовок : AVO (Василий Горчаков)
Язык : Russian
Default : Нет
Forced : Нет
Аудио #4
Идентификатор : 5
Формат : AC-3
Формат/Информация : Audio Coding 3
Расширение режима : CM (complete main)
Параметр Endianness формата : Big
Идентификатор кодека : A_AC3
Продолжительность : 1 ч. 55 м.
Вид битрейта : Постоянный
Битрейт : 448 Кбит/сек
Каналы : 6 каналов
Расположение каналов : Front: L C R, Side: L R, LFE
Частота : 48,0 КГц
Битовая глубина : 16 бит
Метод сжатия : С потерями
Размер потока : 372 Мбайт (6%)
Заголовок : AVO (Юрий Живов)
Язык : Russian
Default : Нет
Forced : Нет
Меню
00:00:00.000 : :Chapter 01
00:04:19.549 : :Chapter 02
00:06:04.279 : :Chapter 03
00:08:27.088 : :Chapter 04
00:11:17.885 : :Chapter 05
00:15:23.714 : :Chapter 06
00:17:38.223 : :Chapter 07
00:23:21.817 : :Chapter 08
00:26:43.768 : :Chapter 09
00:31:01.776 : :Chapter 10
00:35:05.520 : :Chapter 11
00:40:23.587 : :Chapter 12
00:44:32.753 : :Chapter 13
00:48:46.506 : :Chapter 14
00:53:09.186 : :Chapter 15
00:55:44.215 : :Chapter 16
00:58:51.819 : :Chapter 17
01:02:19.444 : :Chapter 18
01:07:38.387 : :Chapter 19
01:08:54.546 : :Chapter 20
01:11:51.515 : :Chapter 21
01:15:16.845 : :Chapter 22
01:15:40.536 : :Chapter 23
01:19:33.518 : :Chapter 24
01:23:27.585 : :Chapter 25
01:27:04.636 : :Chapter 26
01:32:57.196 : :Chapter 27
01:37:06.028 : :Chapter 28
01:40:28.229 : :Chapter 29
01:42:19.883 : :Chapter 30
01:46:05.776 : :Chapter 31
01:50:06.266 : :Chapter 32
01:55:53.529 : :Chapter 33
Общее
Полное имя : D:VideoSpeed.1994.BDRip.720pSpeed.1994.DUB.rus.студия «Хлопушка», VHS.ac3
Формат : AC-3
Формат/Информация : Audio Coding 3
Размер файла : 159 Мбайт
Продолжительность : 1 ч. 55 м.
Режим общего битрейта : Постоянный
Общий поток : 192 Кбит/сек
Аудио
Формат : AC-3
Формат/Информация : Audio Coding 3
Расширение режима : CM (complete main)
Параметр Endianness формата : Big
Продолжительность : 1 ч. 55 м.
Вид битрейта : Постоянный
Битрейт : 192 Кбит/сек
Каналы : 2 канала
Расположение каналов : Front: L R
Частота : 48,0 КГц
Битовая глубина : 16 бит
Метод сжатия : С потерями
Размер потока : 159 Мбайт (100%)
Общее
Полное имя : D:VideoSpeed.1994.BDRip.720pSpeed.1994.DVO.rus.Премьер Видео, VHS.ac3
Формат : AC-3
Формат/Информация : Audio Coding 3
Размер файла : 159 Мбайт
Продолжительность : 1 ч. 55 м.
Режим общего битрейта : Постоянный
Общий поток : 192 Кбит/сек
Аудио
Формат : AC-3
Формат/Информация : Audio Coding 3
Расширение режима : CM (complete main)
Параметр Endianness формата : Big
Продолжительность : 1 ч. 55 м.
Вид битрейта : Постоянный
Битрейт : 192 Кбит/сек
Каналы : 2 канала
Расположение каналов : Front: L R
Частота : 48,0 КГц
Битовая глубина : 16 бит
Метод сжатия : С потерями
Размер потока : 159 Мбайт (100%)
Общее
Полное имя : D:VideoSpeed.1994.BDRip.720pSpeed.1994.eng.srt
Формат : SubRip
Размер файла : 81,1 Кбайт
Текст
Формат : SubRip
Метод сжатия : Без потерь
Общее
Полное имя : D:VideoSpeed.1994.BDRip.720pSpeed.1994.MVO.rus.20th Century Fox.ac3
Формат : AC-3
Формат/Информация : Audio Coding 3
Размер файла : 371 Мбайт
Продолжительность : 1 ч. 55 м.
Режим общего битрейта : Постоянный
Общий поток : 448 Кбит/сек
Аудио
Формат : AC-3
Формат/Информация : Audio Coding 3
Расширение режима : CM (complete main)
Параметр Endianness формата : Big
Продолжительность : 1 ч. 55 м.
Вид битрейта : Постоянный
Битрейт : 448 Кбит/сек
Каналы : 6 каналов
Расположение каналов : Front: L C R, Side: L R, LFE
Частота : 48,0 КГц
Битовая глубина : 16 бит
Метод сжатия : С потерями
Размер потока : 371 Мбайт (100%)
Общее
Полное имя : D:VideoSpeed.1994.BDRip.720pSpeed.1994.MVO.rus.Карусель.dts
Формат : DTS
Формат/Информация : Digital Theater Systems
Размер файла : 1,22 Гбайт
Продолжительность : 1 ч. 55 м.
Режим общего битрейта : Постоянный
Общий поток : 1509 Кбит/сек
Аудио
Формат : DTS
Формат/Информация : Digital Theater Systems
Режим : 16
Параметр Endianness формата : Big
Продолжительность : 1 ч. 55 м.
Вид битрейта : Постоянный
Битрейт : 1509 Кбит/сек
Каналы : 6 каналов
Расположение каналов : Front: L C R, Side: L R, LFE
Частота : 48,0 КГц
Битовая глубина : 24 бит
Метод сжатия : С потерями
Размер потока : 1,22 Гбайт (100%)
Общее
Полное имя : D:VideoSpeed.1994.BDRip.720pSpeed.1994.MVO.rus.ОРТ TVRip.ac3
Формат : AC-3
Формат/Информация : Audio Coding 3
Размер файла : 159 Мбайт
Продолжительность : 1 ч. 55 м.
Режим общего битрейта : Постоянный
Общий поток : 192 Кбит/сек
Аудио
Формат : AC-3
Формат/Информация : Audio Coding 3
Расширение режима : CM (complete main)
Параметр Endianness формата : Big
Продолжительность : 1 ч. 55 м.
Вид битрейта : Постоянный
Битрейт : 192 Кбит/сек
Каналы : 2 канала
Расположение каналов : Front: L R
Частота : 48,0 КГц
Битовая глубина : 16 бит
Метод сжатия : С потерями
Размер потока : 159 Мбайт (100%)
Общее
Полное имя : D:VideoSpeed.1994.BDRip.720pSpeed.1994.Original.eng.ac3
Формат : AC-3
Формат/Информация : Audio Coding 3
Размер файла : 371 Мбайт
Продолжительность : 1 ч. 55 м.
Режим общего битрейта : Постоянный
Общий поток : 448 Кбит/сек
Аудио
Формат : AC-3
Формат/Информация : Audio Coding 3
Расширение режима : CM (complete main)
Параметр Endianness формата : Big
Продолжительность : 1 ч. 55 м.
Вид битрейта : Постоянный
Битрейт : 448 Кбит/сек
Каналы : 6 каналов
Расположение каналов : Front: L C R, Side: L R, LFE
Частота : 48,0 КГц
Битовая глубина : 16 бит
Метод сжатия : С потерями
Размер потока : 371 Мбайт (100%)
Общее
Полное имя : D:VideoSpeed.1994.BDRip.720pSpeed.1994.rus1.srt
Формат : SubRip
Размер файла : 102 Кбайт
Текст
Формат : SubRip
Метод сжатия : Без потерь
Общее
Полное имя : D:VideoSpeed.1994.BDRip.720pSpeed.1994.rus2.srt
Формат : SubRip
Размер файла : 99,1 Кбайт
Текст
Формат : SubRip
Метод сжатия : Без потерь
Общее
Полное имя : D:VideoSpeed.1994.BDRip.720pSpeed.1994.VO.rus.МладоКашкин, VHS.ac3
Формат : AC-3
Формат/Информация : Audio Coding 3
Размер файла : 159 Мбайт
Продолжительность : 1 ч. 55 м.
Режим общего битрейта : Постоянный
Общий поток : 192 Кбит/сек
Аудио
Формат : AC-3
Формат/Информация : Audio Coding 3
Расширение режима : CM (complete main)
Параметр Endianness формата : Big
Продолжительность : 1 ч. 55 м.
Вид битрейта : Постоянный
Битрейт : 192 Кбит/сек
Каналы : 2 канала
Расположение каналов : Front: L R
Частота : 48,0 КГц
Битовая глубина : 16 бит
Метод сжатия : С потерями
Размер потока : 159 Мбайт (100%)

Скриншоты (увеличить)

[Профиль] [ЛС]
Показать сообщения:    

Текущее время: Сегодня 12:35

Часовой пояс: GMT



Вы не можете начинать темы
Вы не можете отвечать на сообщения
Вы не можете редактировать свои сообщения
Вы не можете удалять свои сообщения
Вы не можете голосовать в опросах
Вы не можете прикреплять файлы к сообщениям
Вы не можете скачивать файлы