Скорость: Автобус 657 / Heist (Скотт Манн / Scott Mann) [2015, США, боевик, триллер, WEB-DLRip] Dub (iTunes)

 
Автор Сообщение

TorrentFilm ®

Пол:

Стаж: 2 года

Сообщений: 7741



Награды: Нет

Торрент-статистика

Создавать темы 23-Ноя-2015 00:08

[Цитировать]

Скорость: Автобус 657 / Heist
Страна: США
Жанр: боевик, триллер
Год выпуска: 2015
Продолжительность: 01:32:34
Перевод: Профессиональный (дублированный) iTunes
Cубтитры: нет
Оригинальная аудиодорожка: нет
Режиссер: Скотт Манн / Scott Mann
В ролях: Джеффри Дин Морган, Роберт Де Ниро, Кейт Босворт, Дэйв Батиста, Джина Карано, Марк-Пол Госселаар, Моррис Честнат, Д.Б. Суини, Саммер Элтис, Лидия Халл
Описание: Все знают, что обокрасть Фрэнка Поупа, владельца казино и босса мафии — это самоубийство. Но однажды некогда преданный ему крупье решается вынести из кассы казино несколько миллионов долларов. Все было продумано, но план не сработал. Скрываясь с места преступления, грабители захватывают автобус, полный заложников. На бешеной скорости автобус мчится к мексиканской границе. Топливо на пределе. На хвосте — мафия и полиция. И, кажется, выхода нет…
Сэмпл: http://multi-up.com/1076005
Качество видео: WEB-DLRip
Формат видео: AVI
Видео: Xvid 720x304 23.98fps 1 857 Kbps
Аудио: Dolby AC3 48000Hz 6ch 384kbps
MediaInfoFormat : AVI
Format/Info : Audio Video Interleave
File size : 1.45 GiB
Duration : 1h 32mn
Overall bit rate : 2 250 Kbps
Writing application : VirtualDubMod 1.5.10.3 | www.virtualdub-fr.org || (build 2550/release)
Writing library : VirtualDubMod build 2550/release
Video
ID : 0
Format : MPEG-4 Visual
Format profile : AdvancedSimple@L5
Format settings, BVOP : Yes
Format settings, QPel : No
Format settings, GMC : No warppoints
Format settings, Matrix : Default (MPEG)
Codec ID : XVID
Codec ID/Hint : XviD
Duration : 1h 32mn
Bit rate : 1 857 Kbps
Width : 720 pixels
Height : 304 pixels
Display aspect ratio : 2.35:1
Frame rate : 23.976 fps
Resolution : 24 bits
Colorimetry : 4:2:0
Scan type : Progressive
Bits/(Pixel*Frame) : 0.354
Stream size : 1.20 GiB (83%)
Writing library : XviD 1.2.1 (UTC 2008-12-04)
Audio
ID : 1
Format : AC-3
Format/Info : Audio Coding 3
Codec ID : 2000
Duration : 1h 32mn
Bit rate mode : Constant
Bit rate : 384 Kbps
Channel(s) : 6 channels
Channel positions : Front: L C R, Surround: L R, LFE
Sampling rate : 48.0 KHz
Stream size : 254 MiB (17%)
Alignment : Split accross interleaves
Interleave, duration : 42 ms (1.00 video frame)
Interleave, preload duration : 500 ms

Скриншот c названием фильма

Скриншоты

Файл перезалит. Замена Line на iTunes. Просьба перекачать торрент. Приятного просмотра
[Профиль] [ЛС]
Показать сообщения:    

Текущее время: Сегодня 11:53

Часовой пояс: GMT



Вы не можете начинать темы
Вы не можете отвечать на сообщения
Вы не можете редактировать свои сообщения
Вы не можете удалять свои сообщения
Вы не можете голосовать в опросах
Вы не можете прикреплять файлы к сообщениям
Вы не можете скачивать файлы