Скоростной спуск / Бегущий по холмам / Downhill Racer (1969) BDRip 1080p от ivandubskoj | P

 
Автор Сообщение

Russian Mafia ®

Пол:

Стаж: 1 год 8 месяцев

Сообщений: 4247



Награды: 10 (Подробнее)

За внесенный вклад в развитие сайта (Количество: 1) Top Releaser 4 (Количество: 1) Mega Seeder 1 (Количество: 1)
Торрент-статистика

Создавать темы 04-Авг-2016 13:14

[Цитировать]

Информация о фильме
Название: Скоростной спуск (Бегущий по холмам)
Оригинальное название: Downhill Racer
Год выхода: 1969
Жанр: Драма, спорт, экранизация
Режиссёр: Майкл Ритчи
В ролях: Роберт Редфорд, Джин Хэкмен, Камилла Спарв, Карл Михаэль Фоглер, Джим МакМуллан, Кэтлин Краули, Дэбни Коулмэн, Кеннет Кирк, Орен Стивенс, Джерри Декстер
О фильме:
Экранизация романа Окли Холла. В своем дебютном фильме Майкл Ричи показывает жестокий мир олимпийского лыжного спорта. Чтобы попасть на самый верх, герою Рэдфорда приходится много и тяжело работать. Но слава мимолетна, и плата за неё - одиночество…

Выпущено: США, Wildwood, Wildwood Enterprises
Продолжительность: 01:41:53
Перевод: Профессиональный многоголосый
Оригинальная аудио-дорожка: Английская
Файл
Формат: MKV
Кодек: MPEG-4 AVC
Качество: BDRip 1080p [Исходник: Видеоряд от SADPANDA]
Видео: MPEG-4 AVC, 1920x1040 (1.85:1), 13.2 Мбит/с, 23.976 кадр/с, 0.276 bit/pixel
Аудио #1: Русский, Dolby AC3, 48000 Гц, 224 Кбит/с, 1 канал (Моно) - MVO
Аудио #2: Английский, Dolby AC3, 48000 Гц, 224 Кбит/с, 1 канал (Моно) - Оригинал
Субтитры: Английские (полные, SDH) SRT
Навигация по главам: Есть (Сохранены оригинальные чаптеры, как на Blu-ray)

Благодарности

За рип огромная благодарность - SADPANDA!
За предоставленный исходник аудио-дорожки с русским переводом - спасибо mrrfrost и dsz! (Запись и оцифровка с VHS).

MediaInfo

General
Unique ID : 251761089610502931493988349731606554365 (0xBD676C10CB0981AABAD4D85EEBB6E6FD)
Complete name : Downhill.Racer.1969.BDRip.1080p.mkv
Format : Matroska
Format version : Version 4 / Version 2
File size : 9.73 GiB
Duration : 1h 41mn
Overall bit rate : 13.7 Mbps
Movie name : Скоростной спуск / Бегущий по холмам / Downhill Racer (1969) BDRip (1080p) от ivandubskoj
Encoded date : UTC 2016-08-04 07:19:02
Writing application : mkvmerge v7.9.0 ('Birds') 64bit
Writing library : libebml v1.3.1 + libmatroska v1.4.2
Video
ID : 1
Format : AVC
Format/Info : Advanced Video Codec
Format profile : High@L4.1
Format settings, CABAC : Yes
Format settings, ReFrames : 4 frames
Codec ID : V_MPEG4/ISO/AVC
Duration : 1h 41mn
Bit rate : 13.2 Mbps
Width : 1 920 pixels
Height : 1 040 pixels
Display aspect ratio : 1.85:1
Frame rate mode : Constant
Frame rate : 23.976 fps
Color space : YUV
Chroma subsampling : 4:2:0
Bit depth : 8 bits
Scan type : Progressive
Bits/(Pixel*Frame) : 0.276
Stream size : 9.22 GiB (95%)
Title : Downhill Racer (1969)
Writing library : x264 core 148 r2638 7599210
Encoding settings : cabac=1 / ref=4 / deblock=1:-3:-3 / analyse=0x3:0x113 / me=umh / subme=8 / psy=1 / psy_rd=1.00:0.25 / mixed_ref=1 / me_range=24 / chroma_me=1 / trellis=1 / 8x8dct=1 / cqm=0 / deadzone=21,11 / fast_pskip=1 / chroma_qp_offset=-4 / threads=12 / lookahead_threads=2 / sliced_threads=0 / nr=0 / decimate=1 / interlaced=0 / bluray_compat=0 / constrained_intra=0 / bframes=3 / b_pyramid=2 / b_adapt=2 / b_bias=0 / direct=3 / weightb=1 / open_gop=0 / weightp=2 / keyint=240 / keyint_min=24 / scenecut=40 / intra_refresh=0 / rc_lookahead=50 / rc=2pass / mbtree=1 / bitrate=13220 / ratetol=1.0 / qcomp=0.60 / qpmin=0 / qpmax=69 / qpstep=4 / cplxblur=20.0 / qblur=0.5 / vbv_maxrate=62500 / vbv_bufsize=78125 / nal_hrd=none / filler=0 / ip_ratio=1.40 / aq=1:0.50
Language : English
Default : Yes
Forced : No
Audio #1
ID : 2
Format : AC-3
Format/Info : Audio Coding 3
Mode extension : CM (complete main)
Format settings, Endianness : Big
Codec ID : A_AC3
Duration : 1h 41mn
Bit rate mode : Constant
Bit rate : 224 Kbps
Channel(s) : 1 channel
Channel positions : Front: C
Sampling rate : 48.0 KHz
Bit depth : 16 bits
Compression mode : Lossy
Stream size : 163 MiB (2%)
Title : MVO
Language : Russian
Default : Yes
Forced : No
Audio #2
ID : 3
Format : AC-3
Format/Info : Audio Coding 3
Mode extension : CM (complete main)
Format settings, Endianness : Big
Codec ID : A_AC3
Duration : 1h 41mn
Bit rate mode : Constant
Bit rate : 224 Kbps
Channel(s) : 1 channel
Channel positions : Front: C
Sampling rate : 48.0 KHz
Bit depth : 16 bits
Compression mode : Lossy
Stream size : 163 MiB (2%)
Title : Original
Language : English
Default : No
Forced : No
Text
ID : 4
Format : UTF-8
Codec ID : S_TEXT/UTF8
Codec ID/Info : UTF-8 Plain Text
Title : Full [SDH]
Language : English
Default : No
Forced : No
Menu
00:00:00.000 : en:00:00:00.000
00:06:06.032 : en:00:06:06.032
00:16:45.254 : en:00:16:45.254
00:25:15.180 : en:00:25:15.180
00:31:54.371 : en:00:31:54.371
00:41:33.700 : en:00:41:33.700
00:52:53.879 : en:00:52:53.879
01:01:00.782 : en:01:01:00.782
01:07:06.314 : en:01:07:06.314
01:15:33.446 : en:01:15:33.446
01:24:49.626 : en:01:24:49.626
01:38:02.543 : en:01:38:02.543

Скриншоты



Релиз от: ivandubskoj
[Профиль] [ЛС]
Показать сообщения:    

Текущее время: Сегодня 06:24

Часовой пояс: GMT



Вы не можете начинать темы
Вы не можете отвечать на сообщения
Вы не можете редактировать свои сообщения
Вы не можете удалять свои сообщения
Вы не можете голосовать в опросах
Вы не можете прикреплять файлы к сообщениям
Вы не можете скачивать файлы