Склеп / The Crypt (Крэйг МакМахон / Craig McMahon) [2009 г., США, триллер, BDRip] DVO (Чип и Дейл)

 
Автор Сообщение

painkiller ®

Стаж: 2 года 3 месяца

Сообщений: 582



Награды: Нет

Торрент-статистика

Создавать темы 16-Авг-2014 01:26

[Цитировать]

СклепThe Crypt-«Some things are better left buried»- Год выпуска: 2009
Страна: США-Жанр: триллер
Продолжительность: 01:23:58
Перевод: Любительский (двухголосый, закадровый) (Чип и Дейл)
Субтитры: нет-Режиссер: Крэйг МакМахон / Craig McMahon
Сценарий: Крэйг МакМахон / Craig McMahon
Продюсер: Сесил Чэмберс / Cecil Chambers, Нэйтан Хилл / Nathan Hill, Крэйг МакМахон / Craig McMahon
Оператор: Крэйг МакМахон / Craig McMahon
Композитор: Крэйг МакМахон / Craig McMahon-В ролях: Сара Ох (PJ), Майк Раналло (Perry), Абра Мэй (Gina), Кристен Ирен (Dorian), Джоэнна Ке (Adrianna), Дилэйна Стивенс (Morgan), Р. Кит Уилсон (Grave Robber), Нэйтан Хилл (Correctional Officer), Майкл Дэвид Хилл (Bobby), Халливуд Йэтс (Car Owner), Сет Гандрад (Dagmar), Савана МакМахон (Constance)-Описание: Шестеро молодых людей, занимающихся поиском древних захоронений, направляются в подземные катакомбы под городом, чтобы найти там драгоценности, спрятанные во времена «Великой Депрессии». После обнаружения неизвестного склепа они сталкиваются с необычным существом, которое начинает на них настоящую охоту...-kinopoisk.ru: 3.709 (214)
imdb.com: 3.50 (998)
MPAA: R - Лицам до 17 лет обязательно присутствие взрослого-Качество: BDRip / The.Crypt.Gruft.des.Grauens.UNCUT.2009.DTS-HD.DL.1080p.BluRay.AVC.REMUX-LeetHD
Контейнер: AVI
Видео: 688x288 (2.39:1), 23.976 fps, XviD build 65 ~1100 kbps avg, 0.23 bit/pixel
Аудио: 48 kHz, MPEG Layer 3, 2 ch, ~128.00 kbps avg--

MediaInfo

General
Complete name                            : E:\Рипы\The.Crypt.2009.BDRip.744.DVO.All.Films.avi
Format                                   : AVI
Format/Info                              : Audio Video Interleave
File size                                : 744 MiB
Duration                                 : 1h 23mn
Overall bit rate                         : 1 238 Kbps
Movie name                               : The.Crypt.2009.BDRip.DVO.All.Films
Director                                 : DIABLO93
Genre                                    : Thriller
Writing application                      : VirtualDubMod 1.5.10.3 | www.virtualdub-fr.org || (build 2550/release)
Original source form/Name                : Movie
Copyright                                : Rutracker.org (R.G. All Films)
Video
ID                                       : 0
Format                                   : MPEG-4 Visual
Format profile                           : Advanced Simple@L5
Format settings, BVOP                    : 2
Format settings, QPel                    : No
Format settings, GMC                     : No warppoints
Format settings, Matrix                  : Custom
Codec ID                                 : XVID
Codec ID/Hint                            : XviD
Duration                                 : 1h 23mn
Bit rate                                 : 1 101 Kbps
Width                                    : 688 pixels
Height                                   : 288 pixels
Display aspect ratio                     : 2.40:1
Frame rate                               : 23.976 fps
Color space                              : YUV
Chroma subsampling                       : 4:2:0
Bit depth                                : 8 bits
Scan type                                : Progressive
Compression mode                         : Lossy
Bits/(Pixel*Frame)                       : 0.232
Stream size                              : 661 MiB (89%)
Writing library                          : XviD 65
Audio
ID                                       : 1
Format                                   : MPEG Audio
Format version                           : Version 1
Format profile                           : Layer 3
Mode                                     : Joint stereo
Codec ID                                 : 55
Codec ID/Hint                            : MP3
Duration                                 : 1h 23mn
Bit rate mode                            : Constant
Bit rate                                 : 128 Kbps
Channel(s)                               : 2 channels
Sampling rate                            : 48.0 KHz
Compression mode                         : Lossy
Stream size                              : 76.9 MiB (10%)
Alignment                                : Aligned on interleaves
Interleave, duration                     : 42 ms (1.00 video frame)
Interleave, preload duration             : 504 ms

-

Сэмпл

Скачать

Скриншоты

--
[Профиль] [ЛС]

Создавать темы 06-Авг-2015 23:10 (спустя 11 месяцев 21 день)

Топик был перенесен из форума Фильмы до 2014 года в форум Фильмы до 2012 года
sergej644
 

Создавать темы 12-Июн-2016 08:48 (спустя 1 год 9 месяцев)

Топик был перенесен из форума Фильмы 2011 года в форум Фильмы 2009 года
Russian Mafia
 
Показать сообщения:    

Текущее время: Сегодня 02:37

Часовой пояс: GMT



Вы не можете начинать темы
Вы не можете отвечать на сообщения
Вы не можете редактировать свои сообщения
Вы не можете удалять свои сообщения
Вы не можете голосовать в опросах
Вы не можете прикреплять файлы к сообщениям
Вы не можете скачивать файлы