Сквозь снег / Snowpiercer (2013) BDRip 1080p | L, L2, 2xA

 
Автор Сообщение

Russian Mafia ®

Пол:

Стаж: 1 год 8 месяцев

Сообщений: 4252



Награды: 10 (Подробнее)

Top Releaser 2 (Количество: 1) Mega Seeder 1 (Количество: 1) Top Releaser 4 (Количество: 1)
Торрент-статистика

Создавать темы 10-Окт-2015 15:28

[Цитировать]

Информация о фильме
Название: Сквозь снег
Оригинальное название: Snowpiercer
Год выхода: 2013
Жанр: фантастика, боевик, драма
Режиссер: Пон Чжун Хо
В ролях: Крис Эванс, Тильда Суинтон, Джейми Белл, Октавия Спенсер, Юэн Бремнер, Элисон Пилл, Эд Харрис, Джон Хёрт, Сон Кан Хо, Ко А Сон
О фильме:
Земля образца 2031 года погружена в холод. На ней царит очередной ледниковый период, наступивший после техногенной катастрофы, произошедшей семнадцать лет назад. Последним пристанищем человечества стал поезд, без остановки следующий по трансевразийской магистрали. Остатки населяющего планету человечества находятся в этом поезде, но и здесь нет равенства – люди по-прежнему поделены на классы. В начале состава, где жизнь довольно благополучна и устроена, находится правящая элита, а обычные работяги обитают в конце. Их существование больше похоже на жизнь в концлагере, где царят нищета и болезни.
Иногда терпение обитателей хвостовой части состава заканчивается, и они поднимают восстание, но уже несколько революций провалились из-за того, что бунтовщики не смогли захватить локомотив, откуда ведется управление всем поездом, а значит, и оставшимся человечеством. Но теперь появился настоящий лидер, готовый повести восставших до конца, изменить существующее положение вещей и восстановить справедливость. Только вот удастся ли ему достичь этой благородной цели без жертв и потерь?

Выпущено: США, Франция, Чехия, Корея Южная
Продолжительность: 02:05:53
Озвучивание:
Любительское (многоголосое) [Студия Гараж]
Любительское (двухголосое) [DeadSno & den904]
Авторское (одноголосое) [Дмитрий Есарев]
Авторское (одноголосое) [Андрей Дольский]
Файл
Формат: MKV
Качество: BDRip 1080p [CHD]
Видео: 9865 kb/s, 1920х1036
Аудио:
Russian [Студия Гараж] / [DeadSno & den904] / [Д.Есарев] / [Андрей Дольский]: DTS, 1510 kb/s (6 ch)
English: DTS, 1510 kb/s (6 ch)
Субтитры: Russian [notabenoid] + forced (для озвучки от Студии Гараж), English
Дополнительно: Сохранены оригинальные чаптеры как на Blu-ray
Скачать: Сэмпл

NFO

Общее
Snowpiercer.2013.Blu.Ray.1080p.CINEMANIA.mkv
Формат : Matroska
Версия формата : Version 4 / Version 2
Размер файла : 17,3 Гбайт
Продолжительность : 2 ч. 5 м.
Режим общего битрейта : Переменный
Общий поток : 19,7 Мбит/сек
Название фильма : Release Group CINEMANIA
Дата кодирования : UTC 2014-05-12 15:45:31
Программа кодирования : mkvmerge v6.9.1 ('Blue Panther') 64bit built on Apr 18 2014 18:23:38
Библиотека кодирования : libebml v1.3.0 + libmatroska v1.4.1
Видео
Идентификатор : 1
Формат : AVC
Формат/Информация : Advanced Video Codec
Профиль формата : High@L4.1
Параметр CABAC формата : Да
Параметр ReFrames формата : 4 кадра
Идентификатор кодека : V_MPEG4/ISO/AVC
Продолжительность : 2 ч. 5 м.
Номинальный битрейт : 9865 Кбит/сек
Ширина : 1920 пикселей
Высота : 1036 пикселей
Соотношение сторон : 1,85:1
Режим частоты кадров : Постоянный
Частота кадров : 23,976 кадра/сек
Цветовое пространство : YUV
Субдискретизация насыщенности : 4:2:0
Битовая глубина : 8 бит
Тип развёртки : Прогрессивная
Бит/(Пиксели*Кадры) : 0.207
Заголовок : Release Group CINEMANIA
Библиотека кодирования : x264 core 138 r2356 a1d3d17
Настройки программы : cabac=1 / ref=4 / deblock=1:-3:-3 / analyse=0x3:0x113 / me=umh / subme=10 / psy=1 / psy_rd=1.00:0.05 / mixed_ref=1 / me_range=32 / chroma_me=1 / trellis=2 / 8x8dct=1 / cqm=0 / deadzone=21,11 / fast_pskip=0 / chroma_qp_offset=-2 / threads=18 / lookahead_threads=1 / sliced_threads=0 / nr=0 / decimate=1 / interlaced=0 / bluray_compat=0 / constrained_intra=0 / bframes=6 / b_pyramid=2 / b_adapt=2 / b_bias=0 / direct=3 / weightb=1 / open_gop=0 / weightp=2 / keyint=250 / keyint_min=23 / scenecut=40 / intra_refresh=0 / rc=2pass / mbtree=0 / bitrate=9865 / ratetol=1.0 / qcomp=0.70 / qpmin=0 / qpmax=69 / qpstep=4 / cplxblur=20.0 / qblur=0.5 / ip_ratio=1.40 / pb_ratio=1.30 / aq=2:0.90
Язык : English
Default : Да
Forced : Нет
Аудио #1
Идентификатор : 2
Формат : DTS
Формат/Информация : Digital Theater Systems
Профиль формата : MA / Core
Режим : 16
Параметр Endianness формата : Big
Идентификатор кодека : A_DTS
Продолжительность : 2 ч. 5 м.
Вид битрейта : Переменный
Битрейт : Неизвестно / 1509 Кбит/сек
Каналы : 6 каналов
Расположение каналов : Front: L C R, Side: L R, LFE
Частота : 48,0 КГц
Битовая глубина : 24 бит
Метод сжатия : Без потерь / Lossy
Заголовок : Студия Гараж
Язык : Russian
Default : Да
Forced : Да
Аудио #2
Идентификатор : 3
Формат : DTS
Формат/Информация : Digital Theater Systems
Режим : 16
Параметр Endianness формата : Big
Идентификатор кодека : A_DTS
Продолжительность : 2 ч. 5 м.
Вид битрейта : Постоянный
Битрейт : 1510 Кбит/сек
Каналы : 6 каналов
Расположение каналов : Front: L C R, Side: L R, LFE
Частота : 48,0 КГц
Битовая глубина : 24 бит
Метод сжатия : С потерями
Размер потока : 1,33 Гбайт (8%)
Заголовок : Влад и Снежинка
Язык : Russian
Default : Нет
Forced : Нет
Аудио #3
Идентификатор : 4
Формат : DTS
Формат/Информация : Digital Theater Systems
Режим : 16
Параметр Endianness формата : Big
Идентификатор кодека : A_DTS
Продолжительность : 2 ч. 5 м.
Вид битрейта : Постоянный
Битрейт : 1509 Кбит/сек
Каналы : 6 каналов
Расположение каналов : Front: L C R, Side: L R, LFE
Частота : 48,0 КГц
Битовая глубина : 24 бит
Метод сжатия : С потерями
Размер потока : 1,33 Гбайт (8%)
Заголовок : Д.Есарев
Язык : Russian
Default : Нет
Forced : Нет
Аудио #4
Идентификатор : 5
Формат : DTS
Формат/Информация : Digital Theater Systems
Режим : 16
Параметр Endianness формата : Big
Идентификатор кодека : A_DTS
Продолжительность : 2 ч. 5 м.
Вид битрейта : Постоянный
Битрейт : 1509 Кбит/сек
Каналы : 6 каналов
Расположение каналов : Front: L C R, Side: L R, LFE
Частота : 48,0 КГц
Битовая глубина : 24 бит
Метод сжатия : С потерями
Размер потока : 1,33 Гбайт (8%)
Заголовок : А.Дольский
Язык : Russian
Default : Нет
Forced : Нет
Аудио #5
Идентификатор : 6
Формат : DTS
Формат/Информация : Digital Theater Systems
Режим : 16
Параметр Endianness формата : Big
Идентификатор кодека : A_DTS
Продолжительность : 2 ч. 5 м.
Вид битрейта : Постоянный
Битрейт : 1509 Кбит/сек
Каналы : 6 каналов
Расположение каналов : Front: L C R, Side: L R, LFE
Частота : 48,0 КГц
Битовая глубина : 24 бит
Метод сжатия : С потерями
Размер потока : 1,33 Гбайт (8%)
Язык : English
Default : Нет
Forced : Нет
Текст #1
Идентификатор : 7
Формат : UTF-8
Идентификатор кодека : S_TEXT/UTF8
Идентификатор кодека/Информация : UTF-8 Plain Text
Заголовок : forced - для озвучки Студии Дубляж
Язык : Russian
Default : Да
Forced : Да
Текст #2
Идентификатор : 8
Формат : UTF-8
Идентификатор кодека : S_TEXT/UTF8
Идентификатор кодека/Информация : UTF-8 Plain Text
Заголовок : notabenoid
Язык : Russian
Default : Нет
Forced : Нет
Текст #3
Идентификатор : 9
Формат : UTF-8
Идентификатор кодека : S_TEXT/UTF8
Идентификатор кодека/Информация : UTF-8 Plain Text
Язык : English
Default : Нет
Forced : Нет
Меню
00:00:00.000 : en:Chapter 1
00:08:34.931 : en:Chapter 2
00:21:25.534 : en:Chapter 3
00:29:13.877 : en:Chapter 4
00:39:08.512 : en:Chapter 5
00:47:23.549 : en:Chapter 6
00:56:42.565 : en:Chapter 7
01:06:52.633 : en:Chapter 8
01:15:16.553 : en:Chapter 9
01:23:46.604 : en:Chapter 10
01:36:24.111 : en:Chapter 11
01:52:12.726 : en:Chapter 12
02:05:52.711 : en:Chapter 13
[Профиль] [ЛС]
Показать сообщения:    

Текущее время: Сегодня 00:49

Часовой пояс: GMT



Вы не можете начинать темы
Вы не можете отвечать на сообщения
Вы не можете редактировать свои сообщения
Вы не можете удалять свои сообщения
Вы не можете голосовать в опросах
Вы не можете прикреплять файлы к сообщениям
Вы не можете скачивать файлы