Сквозь серый камень (Игорь Волчек) [1987, Рисованный мультфильм, SATRip]

 
Автор Сообщение

painkiller ®

Стаж: 2 года 3 месяца

Сообщений: 582



Награды: Нет

Торрент-статистика

Создавать темы 27-Авг-2014 15:29

[Цитировать]

Сквозь серый камень
Страна: СССР
Жанр: Рисованный мультфильм
Продолжительность: 00:09:56
Год выпуска: 1987
Русские субтитры: нет
Режиссёр: Игорь Волчек
Описание: Мультипликационная повесть для взрослых. Гроза. Под дождём бежит надсмотрщик из тюрьмы, укрывается от непогоды в лавке антиквара. Свисток жандарма, взрыв - покушение на царя. Обыск у Кибальчича. Он одержим идеей создания реактивного двигателя, который видится ему даже в кончике сигары министра внутренних дел. Петропавловская крепость сводит Кибальчича и надсмотрщика. Под вальс идут воспоминания - парк, открытие памятника, монетный двор. Прогулка перед казнью, пустая камера. Надсмотрщик пытается полететь, но хлыст обрывает его мечту. А мечта Кибальчича вырывается из Петропавловки, заполняя ракетой весь экран.
Доп. информация: «Беларусьфильм»
Автор сценария Евгений Марковский
Оператор-постановщик Михаил Комов
Художник-постановщик Вячеслав Тарасов
Звукорежиссёр Сергей Чупров
Композитор Олег Оловников
Игорь Волчек
Качество: SATRip
Формат: AVI
Видео: 640x480 (1.33:1), 25 fps, XviD build 63 ~1159 kbps avg, 0.15 bit/pixel
Аудио: 44.100 kHz, MPEG Layer 3, 2 ch, ~128.00 kbps avg
Субтитры: нет

Подробные технические данные

Формат : AVIФормат/Информация : Audio Video InterleaveРазмер файла : 92,3 МбайтПродолжительность : 9 м. 56 с.Общий поток : 1298 Кбит/секПрограмма кодирования : VirtualDubModRus 1.5.10.2 (build 2542/release)Библиотека кодирования : VirtualDubMod build 2542/release
ВидеоИдентификатор : 0Формат : MPEG-4 VisualПрофиль формата : Simple@L3Параметр BVOP формата : НетПараметр QPel формата : НетПараметр GMC формата : Без точки переходаПараметр матрицы формата : Default (H.263)Идентификатор кодека : XVIDИдентификатор кодека/Подсказка : XviDПродолжительность : 9 м. 56 с.Битрейт : 1160 Кбит/секШирина : 640 пикс.Высота : 480 пикс.Соотношение сторон : 4:3Частота кадров : 25,000 кадр/секЦветовое пространство : YUVПодвыборка цветности : 4:2:0Битовая глубина : 8 битТип развёртки : ПрогрессивнаяМетод сжатия : С потерямиБит/(Пиксели*Кадры) : 0.151Размер потока : 82,5 Мбайт (89%)Библиотека кодирования : XviD 63
АудиоИдентификатор : 1Формат : MPEG AudioВерсия формата : Version 1Профиль формата : Layer 3Идентификатор кодека : 55Идентификатор кодека/Подсказка : MP3Продолжительность : 9 м. 56 с.Вид битрейта : ПостоянныйБитрейт : 128 Кбит/секКанал(ы) : 2 канала(ов)Частота : 44,1 КГцМетод сжатия : С потерямиЗадержка видео : 26 мс.Размер потока : 9,11 Мбайт (10%)Выравнивание : Разделение по промежуткамПродолжительность промежутка : 40 мс. (1,00 видеокадр)Время предзагрузки промежутка : 500 ms

Скриншоты

[Профиль] [ЛС]
Показать сообщения:    

Текущее время: Сегодня 22:43

Часовой пояс: GMT



Вы не можете начинать темы
Вы не можете отвечать на сообщения
Вы не можете редактировать свои сообщения
Вы не можете удалять свои сообщения
Вы не можете голосовать в опросах
Вы не можете прикреплять файлы к сообщениям
Вы не можете скачивать файлы