Сквозные ранения / Некая справедливость / Puncture wounds / A certain justice (Джорджо Серафини / Giorgio Serafini, Джеймс Койн / James Coyne) [2014, США, боевик, DVDRip] DVO

 
Автор Сообщение

reversefile ®

Пол:

Стаж: 4 года 5 месяцев

Сообщений: 842

Откуда: ReverseFile.org



Награды: Нет

Торрент-статистика

Создавать темы 25-Июл-2014 01:16

[Цитировать]

Сквозные ранения / Puncture wounds
Страна: США
Жанр: боевик
Год выпуска: 2014
Продолжительность: 01:36:48
Перевод: Любительский (двухголосый закадровый)
Cубтитры: нет
Режиссер: Джорджо Серафини, Джеймс Койн / Giorgio Serafini, James Coyne
В ролях: Кунг Ле, Дольф Лундгрен, Винни Джонс, Бриана Эвиган, Джанни Капальди, Джеймс С. Бёрнс, Роберт ЛаСардо
Описание: Отдав долг родине в очередной "горячей точке" на карте мира, Джон с почетом увольняется из армии и возвращается в родной город, где его особенно никто не ждет. У него хроническая депрессия, его преследуют тяжелые воспоминания...
Относительное душевное спокойствие, которое ему все же удается достичь, рушится в один день, когда из окна своей комнаты он видит, как двое мужчин избивают женщину. Он просто хочет помочь несчастной, а в результате оказывается втянут в кровавые криминальные разборки...
Доп. информация: Кунг Ле - чемпион мира по кикбоксингу, а Дольфа Лундгрена и Винни Джонса и так все должны знать
Они, кстати, все вместе дружно продюсировали этот фильм
Перевод и озвучка: 3-A студия
Сэмпл: https://yadi.sk/i/mraQ9gyZWqcTE
Качество видео: DVDRip
Формат видео: AVI
Видео: 870 Kbps, 640x352 (16:9) , 23 976 fps, MPEG 4 XviD
Аудио: 192 Kbps, 48.0 KHz, 16 bits, 2 ch, AC 3

MediaInfo

General
Complete name : C:\Users\Владелец\Downloads\пунктуре.avi
Format : AVI
Format/Info : Audio Video Interleave
File size : 742 MiB
Duration : 1h 36mn
Overall bit rate : 1 072 Kbps
Writing application : VirtualDubMod 1.5.10.2 (build 2540/release)
Writing library : VirtualDubMod build 2540/release
Video
ID : 0
Format : MPEG-4 Visual
Format profile : Advanced Simple@L5
Format settings, BVOP : 2
Format settings, QPel : No
Format settings, GMC : No warppoints
Format settings, Matrix : Default (H.263)
Codec ID : XVID
Codec ID/Hint : XviD
Duration : 1h 36mn
Bit rate : 870 Kbps
Width : 640 pixels
Height : 352 pixels
Display aspect ratio : 16:9
Frame rate : 23.976 fps
Color space : YUV
Chroma subsampling : 4:2:0
Bit depth : 8 bits
Scan type : Progressive
Compression mode : Lossy
Bits/(Pixel*Frame) : 0.161
Stream size : 603 MiB (81%)
Writing library : XviD 64
Audio
ID : 1
Format : AC-3
Format/Info : Audio Coding 3
Mode extension : CM (complete main)
Format settings, Endianness : Big
Codec ID : 2000
Duration : 1h 36mn
Bit rate mode : Constant
Bit rate : 192 Kbps
Channel(s) : 2 channels
Channel positions : Front: L R
Sampling rate : 48.0 KHz
Bit depth : 16 bits
Compression mode : Lossy
Stream size : 133 MiB (18%)
Alignment : Split accross interleaves
Interleave, duration : 42 ms (1.00 video frame)
Interleave, preload duration : 500 ms

Скриншот c названием фильма

Скриншоты





[Профиль] [ЛС]
Показать сообщения:    

Текущее время: Сегодня 12:48

Часовой пояс: GMT



Вы не можете начинать темы
Вы не можете отвечать на сообщения
Вы не можете редактировать свои сообщения
Вы не можете удалять свои сообщения
Вы не можете голосовать в опросах
Вы не можете прикреплять файлы к сообщениям
Вы не можете скачивать файлы