Скауты против зомби / Scouts Guide to the Zombie Apocalypse (Кристофер Лэндон / Christopher Landon) [2015, США, ужасы, комедия, HDRip] Dub (Line)

 
Автор Сообщение

TorrentFilm ®

Пол:

Стаж: 1 год 11 месяцев

Сообщений: 7741



Награды: Нет

Торрент-статистика

Создавать темы 26-Дек-2015 00:14

[Цитировать]

Скауты против зомби / Scouts Guide to the Zombie Apocalypse
Страна: США
Жанр: ужасы, комедия
Год выпуска: 2015
Продолжительность: 01:32:44
Перевод: Профессиональный (дублированный) Line
Cубтитры: нет
Режиссер: Кристофер Лэндон / Christopher Landon
В ролях: Тай Шеридан, Логан Миллер, Джои Морган, Сара Дюмон, Дэвид Кокнер, Холстон Сейдж, Клорис Личмен, Ники Косс, Хирам А. Мюррэй, Лукас Гейдж
Описание: Встречайте самую нелепую команду героев в мире — трое закадычных друзей-бойскаутов и безбашенная официантка. Именно им выпадает миссия остановить зомбиапокалипсис, который уже погрузил в хаос захолустный сонный городок и грозит охватить всю планету. Последняя надежда человечества — скаутские приемы и умения. К борьбе с зомби будь готов! Всегда готов!
Сэмпл: http://multi-up.com/1080697
Качество видео: HDRip
Формат видео: AVI
Видео: 720x304 (2.37:1), 23.976 fps, XviD build 73 ~2056 kbps avg, 0.39 bit/pixel
Аудио: 48 kHz, AC3 Dolby Digital, 2/0 (L,R) ch, ~192 kbps

MediaInfo

Формат : AVI
Формат/Информация : Audio Video Interleave
Размер файла : 1,46 Гбайт
Продолжительность : 1 ч. 32 м.
Общий поток : 2258 Кбит/сек
Программа кодирования : VirtualDubMod 1.5.10.3 (build 2550/release)
Библиотека кодирования : VirtualDubMod build 2550/release
Видео
Идентификатор : 0
Формат : MPEG-4 Visual
Профиль формата : Advanced Simple@L5
Параметр BVOP формата : 1
Параметр QPel формата : Нет
Параметр GMC формата : Без точки перехода
Параметр матрицы формата : Выборочная
Идентификатор кодека : XVID
Идентификатор кодека/Подсказка : XviD
Продолжительность : 1 ч. 32 м.
Битрейт : 2057 Кбит/сек
Ширина : 720 пикселей
Высота : 304 пикселя
Соотношение сторон : 2,35:1
Частота кадров : 23,976 (23976/1000) кадра/сек
Цветовое пространство : YUV
Субдискретизация насыщенности : 4:2:0
Битовая глубина : 8 бит
Тип развёртки : Прогрессивная
Метод сжатия : С потерями
Бит/(Пиксели*Кадры) : 0.392
Размер потока : 1,33 Гбайт (91%)
Библиотека кодирования : XviD 73
Аудио
Идентификатор : 1
Формат : AC-3
Формат/Информация : Audio Coding 3
Расширение режима : CM (complete main)
Параметр Endianness формата : Big
Идентификатор кодека : 2000
Продолжительность : 1 ч. 32 м.
Вид битрейта : Постоянный
Битрейт : 192 Кбит/сек
Каналы : 2 канала
Расположение каналов : Front: L R
Частота : 48,0 КГц
Частота кадров : 31,250 кадров/сек (1536 spf)
Метод сжатия : С потерями
Размер потока : 127 Мбайт (9%)
Выравнивание : Разделение по промежуткам
Продолжительность промежутка : 42 мс. (1,00 видеокадр)
Время предзагрузки промежутка : 500 мс.

Скриншоты

[Профиль] [ЛС]
Кто просматривает тему:

Форум Тема Автор Размер
Фильмы (HD Rips | 720p, 1080p) Скауты против зомби / Scouts Guide to the Zombie Apocalypse (2015) BDRip 1080p | Лицензия достали все 9.75 GB
Фильмы 2015 года Скауты против зомби / Scouts Guide to the Zombie Apocalypse (2015) BDRip | Лицензия достали все 1.46 GB
Фильмы 2015 года Скауты против зомби / Scouts Guide to the Zombie Apocalypse (2015) WEB-DLRip | L2 BOSS 1.46 GB
Фильмы 2015 года Скауты против зомби / Scouts Guide to the Zombie Apocalypse (Кристофер Лэндон / Christopher Landon) [2015, США, ужасы, комедия, WEB-DLRip-AVC] Dub (CamRip) + Sub Eng + Original Eng TorrentFilm 1.47 GB
Фильмы (HD Rips | 720p, 1080p) Скауты против зомби / Scouts Guide to the Zombie Apocalypse (Кристофер Лэндон) [2015 г., ужасы, комедия, BDRip 1080p] Dub [Лицензия] BOSS 9.75 GB
Фильмы (HD Rips | 720p, 1080p) Скауты против зомби / Scouts Guide to the Zombie Apocalypse (Кристофер Лэндон) [2015 г., ужасы, комедия, BDRip 720p] Dub [Лицензия] BOSS 6.31 GB
Фильмы 2015 года Скауты против зомби / Scouts Guide to the Zombie Apocalypse (Кристофер Лэндон) [2015 г., ужасы, комедия, BDRip-AVC] Dub [Лицензия] BOSS 2.18 GB
Фильмы 2015 года Скауты против зомби / Scouts Guide to the Zombie Apocalypse (Кристофер Лэндон) [2015 г., ужасы, комедия, HDRip] Dub [Лицензия] BOSS 2.05 GB
Показать сообщения:    

Текущее время: Сегодня 11:56

Часовой пояс: GMT



Вы не можете начинать темы
Вы не можете отвечать на сообщения
Вы не можете редактировать свои сообщения
Вы не можете удалять свои сообщения
Вы не можете голосовать в опросах
Вы не можете прикреплять файлы к сообщениям
Вы не можете скачивать файлы