Скауты против зомби / Scouts Guide to the Zombie Apocalypse (Кристофер Лэндон / Christopher Landon) [2015, США, ужасы, комедия, WEB-DLRip-AVC] Dub (CamRip) + Sub Eng + Original Eng

 
Автор Сообщение

TorrentFilm ®

Пол:

Стаж: 2 года

Сообщений: 7741



Награды: Нет

Торрент-статистика

Создавать темы 21-Дек-2015 00:11

[Цитировать]

Скауты против зомби / Scouts Guide to the Zombie Apocalypse Страна: США
Жанр: ужасы, комедия
Год выпуска: 2015
Продолжительность: 01:33:09
Перевод: Профессиональный (дублированный) [CamRip]
Cубтитры: английские
Оригинальная аудиодорожка: английский
Режиссер: Кристофер Лэндон / Christopher Landon
В ролях: Тай Шеридан, Логан Миллер, Джои Морган, Сара Дюмон, Дэвид Кокнер, Холстон Сейдж, Клорис Личмен, Ники Косс, Хирам А. Мюррэй, Лукас Гейдж
Описание: Встречайте самую нелепую команду героев в мире — трое закадычных друзей-бойскаутов и безбашенная официантка. Именно им выпадает миссия остановить зомбиапокалипсис, который уже погрузил в хаос захолустный сонный городок и грозит охватить всю планету. Последняя надежда человечества — скаутские приемы и умения. К борьбе с зомби будь готов! Всегда готов!
Сэмпл: http://multi-up.com/1080218
Качество видео: WEB-DLRip
Формат видео: MKV
Видео: AVC, 1657 Кбит/сек, 1152 x 480 (2,40:1), 23.976 fps
Аудио: AC-3, 192 Кбит/сек, 2 канала, 48,0 КГц ru
Аудио 2: AC-3, 448 Кбит/сек, 6 каналов, 48,0 КГц en

MediaInfo

Формат : Matroska
Версия формата : Version 4 / Version 2
Размер файла : 1,47 Гбайт
Продолжительность : 1 ч. 33 м.
Общий поток : 2264 Кбит/сек
Название фильма : Scouts Guide to the Zombie Apocalypse (2015) WEB-DLRip
Дата кодирования : UTC 2015-12-20 18:53:50
Программа кодирования : mkvmerge v7.9.0 ('Birds') 64bit
Библиотека кодирования : libebml v1.3.1 + libmatroska v1.4.2
Видео
Идентификатор : 1
Формат : AVC
Формат/Информация : Advanced Video Codec
Профиль формата : High@L4.1
Параметр CABAC формата : Да
Параметр ReFrames формата : 7 кадров
Идентификатор кодека : V_MPEG4/ISO/AVC
Продолжительность : 1 ч. 32 м.
Битрейт : 1657 Кбит/сек
Ширина : 1152 пикселя
Высота : 480 пикселей
Соотношение сторон : 2,40:1
Соотношение сторон в оригинале : 2,40:1
Режим частоты кадров : Постоянный
Частота кадров : 23,976 (24000/1001) кадра/сек
Цветовое пространство : YUV
Субдискретизация насыщенности : 4:2:0
Битовая глубина : 8 бит
Тип развёртки : Прогрессивная
Бит/(Пиксели*Кадры) : 0.125
Размер потока : 1,06 Гбайт (72%)
Заголовок : Scouts Guide to the Zombie Apocalypse (2015) WEB-DLRip
Библиотека кодирования : x264 core 148 r2638
Настройки программы : cabac=1 / ref=7 / deblock=1:-2:-2 / analyse=0x3:0x133 / me=umh / subme=9 / psy=1 / psy_rd=1.00:0.45 / mixed_ref=0 / me_range=24 / chroma_me=1 / trellis=2 / 8x8dct=1 / cqm=0 / deadzone=21,11 / fast_pskip=1 / chroma_qp_offset=-4 / threads=6 / lookahead_threads=1 / sliced_threads=0 / nr=0 / decimate=1 / interlaced=0 / bluray_compat=0 / constrained_intra=0 / bframes=5 / b_pyramid=2 / b_adapt=1 / b_bias=0 / direct=3 / weightb=1 / open_gop=0 / weightp=0 / keyint=239 / keyint_min=23 / scenecut=40 / intra_refresh=0 / rc_lookahead=60 / rc=abr / mbtree=1 / bitrate=1657 / ratetol=1.0 / qcomp=0.70 / qpmin=10 / qpmax=69 / qpstep=4 / vbv_maxrate=11000 / vbv_bufsize=24000 / nal_hrd=none / filler=0 / ip_ratio=1.40 / aq=1:0.90
Default : Да
Forced : Нет
Аудио #1
Идентификатор : 2
Формат : AC-3
Формат/Информация : Audio Coding 3
Расширение режима : CM (complete main)
Параметр Endianness формата : Big
Идентификатор кодека : A_AC3
Продолжительность : 1 ч. 33 м.
Вид битрейта : Постоянный
Битрейт : 192 Кбит/сек
Каналы : 2 канала
Расположение каналов : Front: L R
Частота : 48,0 КГц
Частота кадров : 31,250 кадров/сек (1536 spf)
Метод сжатия : С потерями
Задержка видео : 494 мс.
Размер потока : 128 Мбайт (8%)
Язык : Russian
Default : Нет
Forced : Нет
Аудио #2
Идентификатор : 3
Формат : AC-3
Формат/Информация : Audio Coding 3
Расширение режима : CM (complete main)
Параметр Endianness формата : Big
Идентификатор кодека : A_AC3
Продолжительность : 1 ч. 32 м.
Вид битрейта : Постоянный
Битрейт : 448 Кбит/сек
Каналы : 6 каналов
Расположение каналов : Front: L C R, Side: L R, LFE
Частота : 48,0 КГц
Частота кадров : 31,250 кадров/сек (1536 spf)
Метод сжатия : С потерями
Размер потока : 297 Мбайт (20%)
Язык : English
Default : Да
Forced : Нет
Текст
Идентификатор : 4
Формат : UTF-8
Идентификатор кодека : S_TEXT/UTF8
Идентификатор кодека/Информация : UTF-8 Plain Text
Продолжительность : 1 ч. 28 м.
Битрейт : 56 бит/сек
Count of elements : 1382
Размер потока : 36,5 Кбайт (0%)
Язык : English
Default : Нет
Forced : Нет
Меню
00:00:00.000 : :00:00:00.000
00:06:45.155 : :00:06:45.155
00:14:53.768 : :00:14:53.768
00:21:31.165 : :00:21:31.165
00:27:01.954 : :00:27:01.954
00:31:30.597 : :00:31:30.597
00:39:25.238 : :00:39:25.238
00:45:57.838 : :00:45:57.838
00:51:13.988 : :00:51:13.988
00:57:32.199 : :00:57:32.199
01:06:08.131 : :01:06:08.131
01:12:08.950 : :01:12:08.950
01:20:00.004 : :01:20:00.004
01:26:04.534 : :01:26:04.534

Скриншот c названием фильма

Скриншоты

[Профиль] [ЛС]
Кто просматривает тему:

Форум Тема Автор Размер
Фильмы (HD Rips | 720p, 1080p) Скауты против зомби / Scouts Guide to the Zombie Apocalypse (2015) BDRip 1080p | Лицензия достали все 9.75 GB
Фильмы 2015 года Скауты против зомби / Scouts Guide to the Zombie Apocalypse (2015) BDRip | Лицензия достали все 1.46 GB
Фильмы 2015 года Скауты против зомби / Scouts Guide to the Zombie Apocalypse (2015) WEB-DLRip | L2 BOSS 1.46 GB
Фильмы 2015 года Скауты против зомби / Scouts Guide to the Zombie Apocalypse (Кристофер Лэндон / Christopher Landon) [2015, США, ужасы, комедия, HDRip] Dub (Line) TorrentFilm 1.46 GB
Фильмы (HD Rips | 720p, 1080p) Скауты против зомби / Scouts Guide to the Zombie Apocalypse (Кристофер Лэндон) [2015 г., ужасы, комедия, BDRip 1080p] Dub [Лицензия] BOSS 9.75 GB
Фильмы (HD Rips | 720p, 1080p) Скауты против зомби / Scouts Guide to the Zombie Apocalypse (Кристофер Лэндон) [2015 г., ужасы, комедия, BDRip 720p] Dub [Лицензия] BOSS 6.31 GB
Фильмы 2015 года Скауты против зомби / Scouts Guide to the Zombie Apocalypse (Кристофер Лэндон) [2015 г., ужасы, комедия, BDRip-AVC] Dub [Лицензия] BOSS 2.18 GB
Фильмы 2015 года Скауты против зомби / Scouts Guide to the Zombie Apocalypse (Кристофер Лэндон) [2015 г., ужасы, комедия, HDRip] Dub [Лицензия] BOSS 2.05 GB
Показать сообщения:    

Текущее время: Сегодня 03:21

Часовой пояс: GMT



Вы не можете начинать темы
Вы не можете отвечать на сообщения
Вы не можете редактировать свои сообщения
Вы не можете удалять свои сообщения
Вы не можете голосовать в опросах
Вы не можете прикреплять файлы к сообщениям
Вы не можете скачивать файлы