Сканирование мозга / Brainscan (Джон Флинн / John Flynn) [1994., Канада, США, Великобритания, Фантастический триллер, HDTV 1080i] 2x MVO + DVO + 3x AVO + Original (ENG) + Sub (ENG)

 
Автор Сообщение

reversefile ®

Пол:

Стаж: 4 года 5 месяцев

Сообщений: 842

Откуда: ReverseFile.org



Награды: Нет

Торрент-статистика

Создавать темы 11-Авг-2014 10:40

[Цитировать]

Brainscan
Страна: Канада, США, Великобритания
Год выпуска: 1994
Жанр: Фантастический триллер
Продолжительность: 1.36.01
Перевод 1: Профессиональный (многоголосый закадровый) [Союз Видео]
Перевод 2: Профессиональный (многоголосый закадровый) Неизвестный
Перевод 3: Профессиональный (двухголосый закадровый) [Екатеринбург Арт]
Перевод 4: Авторский (одноголосый закадровый) [Горчаков]
Перевод 5: Авторский (одноголосый закадровый) [Иванов]
Перевод 6: Авторский (одноголосый закадровый) [Володарский]
Оригинальная аудиодорожка: Английская
Субтитры: Английские
Режиссер: Джон Флинн / John Flynn
В ролях: Эдвард Ферлонг (Edward Furlong), Фрэнк Ланджелла (Frank Langella), Т. Райдер Смит (T. Ryder Smith), Эми Харгривз (Amy Hargreaves), Джеймс Марш (James Marsh), Виктор Эртманис (Victor Ertmanis), Дэвид Хемблен (David Hemblen), Власта Врана (Vlasta Vrana), Доменико Фиоре (Domenico Fiore), Клер Райли (Claire Riley) и другие.
Описание: Когда старшеклассник Майкл приобрел компьютерную интерактивную игру в виртуальной реальности «Сканирование мозга», он и не подозревал, что игрушка колдовским образом проникнет в его подсознание и выпустит на свободу самые потаенные страхи и фантазии.
В этой игре нужно совершить убийство, не оставив никаких свидетелей и улик. Игра кажется просто замечательной: острые ощущения и чувство полной реальности происходящего. Но дело в том, что убийства, совершаемые в игре, происходят на самом деле!
Майкл пытается остановиться, но через экран компьютера появляется Трикстер, живое воплощение «Сканирования мозга», лестью и угрозами заставляя его играть вновь и вновь. За расследование серии странных преступлений берется детектив Хейден, а многочисленные улики неопровержимо указывают на Майкла… [КиноПоиск]
Доп.Информация: Синхронизация дорожек и субтитров: Softernet
Качество: HDTV
Контейнер: MKV
Видео: MPEG2 Video / 13.7 Mbps / 1080i / 29.970 fps / 16:9
Аудио 1: Russian / Dolby AC3 / 2.0 / 48 kHz / 192 kbps / 16 bit - [MVO]
Аудио 2: Russian / Dolby AC3 / 2.0 / 48 kHz / 192 kbps / 16 bit - [MVO]
Аудио 3: Russian / Dolby AC3 / 2.0 / 44 kHz / 192 kbps / 16 bit - [DVO]
Аудио 4: Russian / Dolby AC3 / 2.0 / 48 kHz / 192 kbps / 16 bit - [AVO]
Аудио 5: Russian / Dolby AC3 / 2.0 / 48 kHz / 192 kbps / 16 bit - [AVO]
Аудио 4: Russian / Dolby AC3 / 2.0 / 48 kHz / 192 kbps / 16 bit - [AVO]
Аудио 5: English / Dolby AC3 / 2.0 / 48 kHz / 192 kbps / 16 bit

MediaInfo

Формат : Matroska
Версия формата : Version 4 / Version 2
Размер файла : 10,3 Гбайт
Продолжительность : 1 ч. 36 м.
Режим общего битрейта : Переменный
Общий поток : 15,3 Мбит/сек
Дата кодирования : UTC 2014-08-03 10:35:00
Программа кодирования : mkvmerge v7.1.0 ('Good Love') 64bit built on Jul 27 2014 13:06:55
Библиотека кодирования : libebml v1.3.0 + libmatroska v1.4.1
DURATION : 01:30:37.925000000
NUMBER_OF_FRAMES : 817
NUMBER_OF_BYTES : 23718
_STATISTICS_WRITING_APP : mkvmerge v7.1.0 ('Good Love') 64bit built on Jul 27 2014 13:06:55
_STATISTICS_WRITING_DATE_UTC : 2014-08-03 10:35:00
_STATISTICS_TAGS : BPS DURATION NUMBER_OF_FRAMES NUMBER_OF_BYTES
Видео
Идентификатор : 1
Формат : MPEG Video
Версия формата : Version 2
Профиль формата : Main@High
Параметр BVOP формата : Нет
Параметр матрицы формата : Выборочная
Идентификатор кодека : V_MPEG2
Идентификатор кодека/Информация : MPEG 1 or 2 Video
Продолжительность : 1 ч. 36 м.
Вид битрейта : Переменный
Битрейт : 13,7 Мбит/сек
Максимальный битрейт : 14,0 Мбит/сек
Ширина : 1920 пикселей
Высота : 1080 пикселей
Соотношение сторон : 16:9
Режим частоты кадров : Постоянный
Частота кадров : 29,970 кадров/сек
Цветовое пространство : YUV
Субдискретизация насыщенности : 4:2:0
Битовая глубина : 8 бит
Тип развёртки : Чересстрочная
Порядок развёртки : Верхнее поле первое
Метод сжатия : С потерями
Бит/(Пиксели*Кадры) : 0.220
Временной код первого кадра : 00:00:00;00
Оригинал временного кода : Group of pictures header
Размер потока : 9,16 Гбайт (89%)
Default : Да
Forced : Нет
Аудио #1
Идентификатор : 2
Формат : AC-3
Формат/Информация : Audio Coding 3
Расширение режима : CM (complete main)
Параметр Endianness формата : Big
Идентификатор кодека : A_AC3
Продолжительность : 1 ч. 36 м.
Вид битрейта : Постоянный
Битрейт : 192 Кбит/сек
Каналы : 2 канала
Расположение каналов : Front: L R
Частота : 48,0 КГц
Битовая глубина : 16 бит
Метод сжатия : С потерями
Размер потока : 132 Мбайт (1%)
Заголовок : MVO [Союз Видео]
Язык : Russian
Default : Нет
Forced : Нет
Аудио #2
Идентификатор : 3
Формат : AC-3
Формат/Информация : Audio Coding 3
Расширение режима : CM (complete main)
Параметр Endianness формата : Big
Идентификатор кодека : A_AC3
Продолжительность : 1 ч. 36 м.
Вид битрейта : Постоянный
Битрейт : 192 Кбит/сек
Каналы : 2 канала
Расположение каналов : Front: L R
Частота : 48,0 КГц
Битовая глубина : 16 бит
Метод сжатия : С потерями
Размер потока : 132 Мбайт (1%)
Заголовок : MVO
Язык : Russian
Default : Нет
Forced : Нет
Аудио #3
Идентификатор : 4
Формат : AC-3
Формат/Информация : Audio Coding 3
Расширение режима : CM (complete main)
Параметр Endianness формата : Big
Идентификатор кодека : A_AC3
Продолжительность : 1 ч. 36 м.
Вид битрейта : Постоянный
Битрейт : 192 Кбит/сек
Каналы : 2 канала
Расположение каналов : Front: L R
Частота : 44,1 КГц
Битовая глубина : 16 бит
Метод сжатия : С потерями
Размер потока : 132 Мбайт (1%)
Заголовок : DVO [Екатеринбург Арт]
Язык : Russian
Default : Нет
Forced : Нет
Аудио #4
Идентификатор : 5
Формат : AC-3
Формат/Информация : Audio Coding 3
Расширение режима : CM (complete main)
Параметр Endianness формата : Big
Идентификатор кодека : A_AC3
Продолжительность : 1 ч. 36 м.
Вид битрейта : Постоянный
Битрейт : 192 Кбит/сек
Каналы : 2 канала
Расположение каналов : Front: L R
Частота : 48,0 КГц
Битовая глубина : 16 бит
Метод сжатия : С потерями
Размер потока : 132 Мбайт (1%)
Заголовок : AVO [Горчаков]
Язык : Russian
Default : Нет
Forced : Нет
Аудио #5
Идентификатор : 6
Формат : AC-3
Формат/Информация : Audio Coding 3
Расширение режима : CM (complete main)
Параметр Endianness формата : Big
Идентификатор кодека : A_AC3
Продолжительность : 1 ч. 36 м.
Вид битрейта : Постоянный
Битрейт : 192 Кбит/сек
Каналы : 2 канала
Расположение каналов : Front: L R
Частота : 48,0 КГц
Битовая глубина : 16 бит
Метод сжатия : С потерями
Размер потока : 132 Мбайт (1%)
Заголовок : AVO [Иванов]
Язык : Russian
Default : Нет
Forced : Нет
Аудио #6
Идентификатор : 7
Формат : AC-3
Формат/Информация : Audio Coding 3
Расширение режима : CM (complete main)
Параметр Endianness формата : Big
Идентификатор кодека : A_AC3
Продолжительность : 1 ч. 36 м.
Вид битрейта : Постоянный
Битрейт : 192 Кбит/сек
Каналы : 2 канала
Расположение каналов : Front: L R
Частота : 48,0 КГц
Битовая глубина : 16 бит
Метод сжатия : С потерями
Размер потока : 132 Мбайт (1%)
Заголовок : AVO [Володарский]
Язык : Russian
Default : Нет
Forced : Нет
Аудио #7
Идентификатор : 8
Формат : AC-3
Формат/Информация : Audio Coding 3
Расширение режима : CM (complete main)
Параметр Endianness формата : Big
Идентификатор кодека : A_AC3
Продолжительность : 1 ч. 36 м.
Вид битрейта : Постоянный
Битрейт : 192 Кбит/сек
Каналы : 2 канала
Расположение каналов : Front: L R
Частота : 48,0 КГц
Битовая глубина : 16 бит
Метод сжатия : С потерями
Размер потока : 132 Мбайт (1%)
Заголовок : Original
Язык : English
Default : Нет
Forced : Нет
Текст
Идентификатор : 9
Формат : UTF-8
Идентификатор кодека : S_TEXT/UTF8
Идентификатор кодека/Информация : UTF-8 Plain Text
Язык : English
Default : Нет
Forced : Нет

Скриншоты

[Профиль] [ЛС]
Кто просматривает тему:

Форум Тема Автор Размер
Мировая классика Александр Дюма-отец - Асканио [Леонид Деркач, 2014] Magnat 826 MB
Показать сообщения:    

Текущее время: Сегодня 12:48

Часовой пояс: GMT



Вы не можете начинать темы
Вы не можете отвечать на сообщения
Вы не можете редактировать свои сообщения
Вы не можете удалять свои сообщения
Вы не можете голосовать в опросах
Вы не можете прикреплять файлы к сообщениям
Вы не можете скачивать файлы