Скандальный дневник / Notes on a Scandal (Ричард Айр / Richard Eyre) [2006 г., Великобритания, триллер, драма, BDRip-AVC] 2xMVO (R5, ORT) + DVO + Ukr + Original Eng + Sub (Rus, Ukr, Eng)

 
Автор Сообщение

TorrentFilm ®

Пол:

Стаж: 2 года

Сообщений: 7741



Награды: Нет

Торрент-статистика

Создавать темы 19-Дек-2014 02:00

[Цитировать]

-Скандальный дневник / Notes on a Scandal«Ошибка одной - возможность для другой» Страна: Великобритания
Студия: BBC Films, DNA Films, Fox Searchlight Pictures, Ingenious Film Partners, Scott Rudin Productions, UK Film Council
Жанр: Триллер, драма
Год выпуска: 2006
Продолжительность: 01:31:47-Перевод 1: Профессиональный (многоголосый, закадровый), R5
Перевод 2: Профессиональный (многоголосый, закадровый), ОРТ
Перевод 3: Профессиональный (двухголосый, закадровый) (отдельно)
Оригинальная аудиодорожка: английский
Cубтитры: русские, украинские, английские
Режиссер: Ричард Айр / Richard Eyre
В ролях: Джуди Денч, Кейт Бланшетт, Билл Найи, Эндрю Симпсон, Том Джорджсон, Майкл Мэлоуни, Джоэнна Скэнлэн, Шон Паркес, Эмма Кеннеди, Сирита Кумар
Описание: Преподавательница гуманитарных наук Шеба Харт заводит роман со своим пятнадцатилетним учеником. Тайная связь грозится стать достоянием общественности, когда об этом узнает другая преподавательница по имени Барбара…-
Сэмпл: скачать-Релиз от -
Автор рипа: Elheym
Качество: BDRip-AVC (источник: / Blu-ray Disc [NotesOnAScandal] / 1080p)
Контейнер: MKV
Видео: 1146x622 (1.85:1), 23.976 fps, MPEG-4 AVC, ~4443 kbps avg, 0.260 bit/pixel
Аудио #1: Русский: АС3, 5.1, 48 kHz, ~448 Кбит/с | Профессиональный (многоголосый, закадровый), R5 |
Аудио #2: Русский: АС3, 2.0, 48 kHz, ~192 Кбит/с | Профессиональный (многоголосый, закадровый), ОРТ |
Аудио #3: Английский: AC3, 5.1, 48 kHz, ~448 Кбит/с | Оригинал |
Аудио #4: Русский: АС3, 2.0, 48 kHz, ~192 Кбит/с | Профессиональный (двухголосый, закадровый) | (отдельно)
Аудио #5: Украинский: АС3, 2.0, 48 kHz, ~192 Кбит/с | Профессиональный (многоголосый, закадровый), 1+1 | (отдельно)
Субтитры: Русские (полные, полные SDH), Украинские (полные), Английские (полные, полные SDH)
Главы: Присутствуют, сохранены оригинальные

MediaInfo

Уникальный идентификатор : 241116080286431593851945965621654022686 (0xB5654495BAC37C81A9BE3D2FF1776A1E)
Полное имя : Notes.on.a.Scandal.2006.TRIPLE.BDRip-AVC.x264.AC3.-HQCLUB.mkv
Формат : Matroska
Версия формата : Version 2
Размер файла : 3,62 Гбайт
Продолжительность : 1 ч. 31 м.
Общий поток : 5643 Кбит/сек
Дата кодирования : UTC 2014-11-13 10:07:31
Программа кодирования : mkvmerge v5.2.0 ('I can't explain') built on Dec 18 2011 18:12:03
Библиотека кодирования : libebml v1.2.3 + libmatroska v1.3.0
Видео
Идентификатор : 1
Формат : AVC
Формат/Информация : Advanced Video Codec
Профиль формата : High@L4.1
Параметр CABAC формата : Да
Параметр ReFrames формата : 11 кадров
Идентификатор кодека : V_MPEG4/ISO/AVC
Продолжительность : 1 ч. 31 м.
Битрейт : 4443 Кбит/сек
Ширина : 1146 пикселей
Высота : 622 пикселя
Соотношение сторон : 1,85:1
Режим частоты кадров : Постоянный
Частота кадров : 23,976 кадра/сек
Цветовое пространство : YUV
Субдискретизация насыщенности : 4:2:0
Битовая глубина : 8 бит
Тип развёртки : Прогрессивная
Бит/(Пиксели*Кадры) : 0.260
Размер потока : 2,85 Гбайт (79%)
Заголовок : Скандальный дневник / Notes on a Scandal (2006) BDRip-AVC by HQCLUB [Elheym]
Библиотека кодирования : x264 core 142 r2479kMod dd79a61
Настройки программы : cabac=1 / ref=11 / deblock=1:-3:-2 / analyse=0x3:0x113 / me=umh / subme=11 / psy=1 / fade_compensate=0.00 / psy_rd=1.06:0.00 / mixed_ref=1 / me_range=32 / chroma_me=1 / trellis=2 / 8x8dct=1 / cqm=0 / deadzone=21,11 / fast_pskip=0 / chroma_qp_offset=-4 / threads=6 / lookahead_threads=1 / sliced_threads=0 / nr=0 / decimate=0 / interlaced=0 / bluray_compat=0 / constrained_intra=0 / fgo=0 / bframes=14 / b_pyramid=2 / b_adapt=2 / b_bias=0 / direct=1 / weightb=1 / open_gop=0 / weightp=2 / keyint=230 / keyint_min=23 / scenecut=40 / intra_refresh=0 / rc_lookahead=40 / rc=crf / mbtree=1 / crf=19.4000 / qcomp=0.70 / qpmin=0 / qpmax=69 / qpstep=4 / vbv_maxrate=50000 / vbv_bufsize=62500 / crf_max=0.0 / nal_hrd=none / filler=0 / ip_ratio=1.40 / aq=1:0.90
Язык : English
Default : Да
Forced : Нет
Аудио #1
Идентификатор : 2
Формат : AC-3
Формат/Информация : Audio Coding 3
Расширение режима : CM (complete main)
Параметр Endianness формата : Big
Идентификатор кодека : A_AC3
Продолжительность : 1 ч. 31 м.
Вид битрейта : Постоянный
Битрейт : 448 Кбит/сек
Каналы : 6 каналов
Расположение каналов : Front: L C R, Side: L R, LFE
Частота : 48,0 КГц
Битовая глубина : 16 бит
Метод сжатия : С потерями
Размер потока : 294 Мбайт (8%)
Заголовок : АС3 5.1 @ 448 kbps - MVO, R5
Язык : Russian
Default : Нет
Forced : Нет
Аудио #2
Идентификатор : 3
Формат : AC-3
Формат/Информация : Audio Coding 3
Расширение режима : CM (complete main)
Параметр Endianness формата : Big
Идентификатор кодека : A_AC3
Продолжительность : 1 ч. 31 м.
Вид битрейта : Постоянный
Битрейт : 192 Кбит/сек
Каналы : 2 канала
Расположение каналов : Front: L R
Частота : 48,0 КГц
Битовая глубина : 16 бит
Метод сжатия : С потерями
Размер потока : 126 Мбайт (3%)
Заголовок : АС3 2.0 @ 192 kbps - MVO, ORT
Язык : Russian
Default : Нет
Forced : Нет
Аудио #3
Идентификатор : 4
Формат : AC-3
Формат/Информация : Audio Coding 3
Расширение режима : CM (complete main)
Параметр Endianness формата : Big
Идентификатор кодека : A_AC3
Продолжительность : 1 ч. 31 м.
Вид битрейта : Постоянный
Битрейт : 448 Кбит/сек
Каналы : 6 каналов
Расположение каналов : Front: L C R, Side: L R, LFE
Частота : 48,0 КГц
Битовая глубина : 16 бит
Метод сжатия : С потерями
Размер потока : 294 Мбайт (8%)
Заголовок : АС3 5.1 @ 448 kbps - Original
Язык : English
Default : Нет
Forced : Нет
Текст #1
Идентификатор : 5
Формат : UTF-8
Идентификатор кодека : S_TEXT/UTF8
Идентификатор кодека/Информация : UTF-8 Plain Text
Заголовок : Full
Язык : Russian
Default : Нет
Forced : Нет
Текст #2
Идентификатор : 6
Формат : UTF-8
Идентификатор кодека : S_TEXT/UTF8
Идентификатор кодека/Информация : UTF-8 Plain Text
Заголовок : Full SDH
Язык : Russian
Default : Нет
Forced : Нет
Текст #3
Идентификатор : 7
Формат : UTF-8
Идентификатор кодека : S_TEXT/UTF8
Идентификатор кодека/Информация : UTF-8 Plain Text
Заголовок : Full
Язык : Ukrainian
Default : Нет
Forced : Нет
Текст #4
Идентификатор : 8
Формат : UTF-8
Идентификатор кодека : S_TEXT/UTF8
Идентификатор кодека/Информация : UTF-8 Plain Text
Заголовок : Full
Язык : English
Default : Нет
Forced : Нет
Текст #5
Идентификатор : 9
Формат : UTF-8
Идентификатор кодека : S_TEXT/UTF8
Идентификатор кодека/Информация : UTF-8 Plain Text
Заголовок : Full SDH
Язык : English
Default : Нет
Forced : Нет
Меню
00:00:00.000 : :Chapter 01
00:04:22.595 : :Chapter 03
00:10:58.199 : :Chapter 05
00:16:02.795 : :Chapter 07
00:19:57.029 : :Chapter 09
00:22:40.150 : :Chapter 11
00:25:41.998 : :Chapter 13
00:32:19.228 : :Chapter 15
00:37:47.390 : :Chapter 17
00:44:08.687 : :Chapter 19
00:46:56.188 : :Chapter 21
00:50:14.344 : :Chapter 23
00:52:35.152 : :Chapter 25
00:57:06.714 : :Chapter 27
00:59:34.612 : :Chapter 29
01:09:07.560 : :Chapter 31
01:13:21.438 : :Chapter 33
01:16:57.237 : :Chapter 35
01:23:09.484 : :Chapter 37
01:26:07.620 : :Chapter 39
01:31:46.918 : :Chapter 40

x264 log

x264 [info]: frame I:975 Avg QP:16.94 size:101585
x264 [info]: frame P:23963 Avg QP:20.64 size: 38776
x264 [info]: frame B:107102 Avg QP:21.77 size: 19655
x264 [info]: consecutive B-frames: 1.2% 1.3% 3.0% 16.5% 11.7% 37.7% 7.2% 9.1% 2.4% 2.5% 1.2% 3.7% 1.1% 1.0% 0.5%
x264 [info]: ref P L0: 40.8% 10.8% 18.5% 7.7% 6.2% 4.5% 3.9% 2.2% 2.0% 1.7% 1.7% 0.2% 0.0%
x264 [info]: ref B L0: 63.9% 14.5% 8.1% 4.2% 3.1% 2.4% 1.9% 1.2% 0.6% 0.2%
x264 [info]: ref B L1: 89.8% 10.2%

Скриншоты

[Профиль] [ЛС]

Создавать темы 06-Авг-2015 22:54 (спустя 7 месяцев 18 дней)

Топик был перенесен из форума Фильмы до 2014 года в форум Фильмы до 2012 года
sergej644
 
Кто просматривает тему:

Форум Тема Автор Размер
Фильмы 2011 года Очень британский секс-скандал / Британский скандал вокруг секса / A Very British Sex Scandal (Патрик Римс / Patrick Reams) [2007, Великобритания, драма, криминал, DVDRip] VO + Sub Rus painkiller 720 MB
Разная литература Пошаговое руководство по созданию ножа в шведском (скандинавском) стиле [2010, PDF, RUS] Garik014 2 MB
Зарубежные сериалы Скандал / Scandal [S01-05] (2012-2016) WEB-DLRip | Fox Life Russian Mafia 43.14 GB
Зарубежные сериалы Скандал / Scandal [S04] (2014-2015) WEB-DLRip от CasStudio | P | Fox Life достали все 15.25 GB
Фильмы 2011 года Скандальный дневник / Notes on a Scandal (Ричард Айр / Richard Eyre) [2006, Великобритания, триллер, драма, BDRip] MVO (1 канал) + MVO + Original Eng painkiller 2.18 GB
Фильмы 2011 года Скандальный дневник / Notes on a Scandal (Ричард Айр / Richard Eyre) [2006, Великобритания, триллер, драма, BDRip] MVO (R5) + Original (eng) + Sub (rus, eng) painkiller 1.74 GB
Фильмы 2011 года Скандальный дневник / Notes on a Scandal (Ричард Эйр / Richard Eyre) [2006, Великобритания, триллер, драма, HDRip] MVO TorrentFilm 744 MB
Фильмы 2011 года Скандальный дневник / Notes on a Scandal (Ричард Эйр / Richard Eyre) [2006, Великобритания, триллер, драма, HDTVRip] MVO reversefile 747 MB
Показать сообщения:    

Текущее время: Сегодня 22:42

Часовой пояс: GMT



Вы не можете начинать темы
Вы не можете отвечать на сообщения
Вы не можете редактировать свои сообщения
Вы не можете удалять свои сообщения
Вы не можете голосовать в опросах
Вы не можете прикреплять файлы к сообщениям
Вы не можете скачивать файлы