Скандальный дневник / Notes on a Scandal (Ричард Айр / Richard Eyre) [2006, Великобритания, триллер, драма, BDRip] MVO (1 канал) + MVO + Original Eng

 
Автор Сообщение

painkiller ®

Стаж: 2 года 3 месяца

Сообщений: 582



Награды: Нет

Торрент-статистика

Создавать темы 18-Авг-2014 01:01

[Цитировать]

Скандальный дневник / Notes on a Scandal
Страна: Великобритания
Студия: Fox Searchlight Pictures, DNA Films, UK Film Council
Жанр: триллер, драма
Год выпуска: 2006
Продолжительность: 01:31:46
Перевод 1: Профессиональный (многоголосый закадровый) 1 канал
Перевод 2: Профессиональный (многоголосый закадровый)
Cубтитры: нет
Оригинальная аудиодорожка: английский
Режиссер: Ричард Айр / Richard Eyre
В ролях: Джуди Денч, Кейт Бланшетт, Билл Найи, Эндрю Симпсон, Том Джорджсон, Майкл Мэлоуни, Джоэнна Скэнлэн, Шон Паркес, Эмма Кеннеди, Сирита Кумар, Филип Дэвис, Венди Ноттинхэм, Тамека Эмпсон, Леон Скиннер, Джуно Темпл, Макс Льюис, Дебра Джиллетт, Бэрри МакКарти
Описание: Преподавательница гуманитарных наук Шеба Харт заводит роман со своим пятнадцатилетним учеником. Тайная связь грозится стать достоянием общественности, когда об этом узнает другая преподавательница по имени Барбара…
II Сэмпл II IMDB II
Запись звука с 1 канала и синхронизация vedigo
На дороге от 1 канала на 65 минуте минутная вставка с многоголоски исходника.
Качество видео: BDRip
Формат видео: AVI
Видео: Xvid 720x384 (1,87:1) 23.976fps Bit rate 2295Kbps 0.346
Аудио 1: AC3 48.0KHz 2ch 192 Kbps rus mvo
Аудио 2: AC3 48.0KHz 6ch 448 Kbps rus mvo
Аудио 3: AC3 48.0KHz 6ch 448 Kbps eng

MediaInfo

Общее
Полное имя : E:\torrent\Notes.on.a.Scandal.BDRip.avi
Формат : AVI
Формат/Информация : Audio Video Interleave
Профиль формата : OpenDML
Размер файла : 2,18 Гбайт
Продолжительность : 1 ч. 31 м.
Общий поток : 3407 Кбит/сек
Программа кодирования : VirtualDubMod 1.5.10.2 (build 2540/release)
Библиотека кодирования : VirtualDubMod build 2540/release
Видео
Идентификатор : 0
Формат : MPEG-4 Visual
Профиль формата : Advanced Simple@L5
Параметр BVOP формата : 2
Параметр QPel формата : Нет
Параметр GMC формата : Без точки перехода
Параметр матрицы формата : Default (H.263)
Идентификатор кодека : XVID
Идентификатор кодека/Подсказка : XviD
Продолжительность : 1 ч. 31 м.
Битрейт : 2295 Кбит/сек
Ширина : 720 пикселей
Высота : 384 пикселя
Соотношение сторон : 1,85:1
Частота кадров : 23,976 кадра/сек
Цветовое пространство : YUV
Субдискретизация насыщенности : 4:2:0
Битовая глубина : 8 бит
Тип развёртки : Прогрессивная
Метод сжатия : С потерями
Бит/(Пиксели*Кадры) : 0.346
Размер потока : 1,47 Гбайт (67%)
Библиотека кодирования : XviD 1.2.1 (UTC 2008-12-04)
Аудио #1
Идентификатор : 1
Формат : AC-3
Формат/Информация : Audio Coding 3
Расширение режима : CM (complete main)
Параметр Endianness формата : Big
Идентификатор кодека : 2000
Продолжительность : 1 ч. 31 м.
Вид битрейта : Постоянный
Битрейт : 192 Кбит/сек
Каналы : 2 канала
Расположение каналов : Front: L R
Частота : 48,0 КГц
Битовая глубина : 16 бит
Метод сжатия : С потерями
Размер потока : 126 Мбайт (6%)
Выравнивание : Разделение по промежуткам
Продолжительность промежутка : 42 мс. (1,00 видеокадр)
Время предзагрузки промежутка : 500 мс.
Аудио #2
Идентификатор : 2
Формат : AC-3
Формат/Информация : Audio Coding 3
Идентификатор кодека : 2000
Продолжительность : 1 ч. 31 м.
Вид битрейта : Постоянный
Битрейт : 448 Кбит/сек
Каналы : 6 каналов
Частота : 48,0 КГц
Метод сжатия : С потерями
Размер потока : 294 Мбайт (13%)
Выравнивание : Разделение по промежуткам
Продолжительность промежутка : 42 мс. (1,00 видеокадр)
Время предзагрузки промежутка : 500 мс.
Аудио #3
Идентификатор : 3
Формат : AC-3
Формат/Информация : Audio Coding 3
Расширение режима : CM (complete main)
Параметр Endianness формата : Big
Идентификатор кодека : 2000
Продолжительность : 1 ч. 31 м.
Вид битрейта : Постоянный
Битрейт : 448 Кбит/сек
Каналы : 6 каналов
Расположение каналов : Front: L C R, Side: L R, LFE
Частота : 48,0 КГц
Битовая глубина : 16 бит
Метод сжатия : С потерями
Размер потока : 294 Мбайт (13%)
Выравнивание : Разделение по промежуткам
Продолжительность промежутка : 42 мс. (1,00 видеокадр)
Время предзагрузки промежутка : 500 мс.

Скриншот c названием фильма

Скриншоты

[Профиль] [ЛС]

Создавать темы 06-Авг-2015 23:09 (спустя 11 месяцев 19 дней)

Топик был перенесен из форума Фильмы до 2014 года в форум Фильмы до 2012 года
sergej644
 
Кто просматривает тему:

Форум Тема Автор Размер
Фильмы 2011 года Очень британский секс-скандал / Британский скандал вокруг секса / A Very British Sex Scandal (Патрик Римс / Patrick Reams) [2007, Великобритания, драма, криминал, DVDRip] VO + Sub Rus painkiller 720 MB
Разная литература Пошаговое руководство по созданию ножа в шведском (скандинавском) стиле [2010, PDF, RUS] Garik014 2 MB
Зарубежные сериалы Скандал / Scandal [S01-05] (2012-2016) WEB-DLRip | Fox Life Russian Mafia 43.14 GB
Зарубежные сериалы Скандал / Scandal [S04] (2014-2015) WEB-DLRip от CasStudio | P | Fox Life достали все 15.25 GB
Фильмы 2011 года Скандальный дневник / Notes on a Scandal (Ричард Айр / Richard Eyre) [2006 г., Великобритания, триллер, драма, BDRip-AVC] 2xMVO (R5, ORT) + DVO + Ukr + Original Eng + Sub (Rus, Ukr, Eng) TorrentFilm 3.86 GB
Фильмы 2011 года Скандальный дневник / Notes on a Scandal (Ричард Айр / Richard Eyre) [2006, Великобритания, триллер, драма, BDRip] MVO (R5) + Original (eng) + Sub (rus, eng) painkiller 1.74 GB
Фильмы 2011 года Скандальный дневник / Notes on a Scandal (Ричард Эйр / Richard Eyre) [2006, Великобритания, триллер, драма, HDRip] MVO TorrentFilm 744 MB
Фильмы 2011 года Скандальный дневник / Notes on a Scandal (Ричард Эйр / Richard Eyre) [2006, Великобритания, триллер, драма, HDTVRip] MVO reversefile 747 MB
Показать сообщения:    

Текущее время: Сегодня 09:58

Часовой пояс: GMT



Вы не можете начинать темы
Вы не можете отвечать на сообщения
Вы не можете редактировать свои сообщения
Вы не можете удалять свои сообщения
Вы не можете голосовать в опросах
Вы не можете прикреплять файлы к сообщениям
Вы не можете скачивать файлы