Скандальный дневник / Notes on a Scandal (Ричард Эйр / Richard Eyre) [2006, Великобритания, триллер, драма, HDTVRip] MVO

 
Автор Сообщение

reversefile ®

Пол:

Стаж: 4 года 5 месяцев

Сообщений: 842

Откуда: ReverseFile.org



Награды: Нет

Торрент-статистика

Создавать темы 11-Авг-2014 10:47

[Цитировать]

Скандальный дневник / Notes on a Scandal- Страна: Великобритания
Жанр: триллер, драма
Год выпуска: 2006
Продолжительность: 01:31:43-Перевод: Профессиональный (многоголосый закадровый)
Cубтитры: нет-Режиссер: Ричард Эйр / Richard Eyre-В ролях: Джуди Денч, Кейт Бланшетт, Том Джорджсон, Майкл Мэлоуни, Джоэнна Скэнлэн, Шон Паркес, Эмма Кеннеди, Сирита Кумар, Эндрю Симпсон, Филип Дэвис и др.-Описание: Преподавательница гуманитарных наук Шеба Харт заводит роман со своим пятнадцатилетним учеником. Тайная связь грозится стать достоянием общественности, когда об этом узнает другая преподавательница по имени Барбара…-Сэмпл: http://multi-up.com/960640-Качество видео: HDTVRip
Формат видео: AVI
Видео: 624x336 (1.86:1), 23.976 fps, XviD build 73 ~1001 kbps avg, 0.20 bit/pixel
Аудио: 48 kHz, MPEG Layer 3, 2 ch, ~128.00 kbps avg

MediaInfo

Общее
Полное имя                               : D:\Notes on a Scandal.2006.HDTVRip.avi
Формат                                   : AVI
Формат/Информация                        : Audio Video Interleave
Размер файла                             : 747 Мбайт
Продолжительность                        : 1 ч. 31 м.
Общий поток                              : 1139 Кбит/сек
Программа кодирования                    : VirtualDubMod 1.5.10.3 | www.virtualdub-fr.org || (build 2550/release)
Библиотека кодирования                   : VirtualDubMod build 2550/release
Видео
Идентификатор                            : 0
Формат                                   : MPEG-4 Visual
Профиль формата                          : Advanced Simple@L5
Параметр BVOP формата                    : 1
Параметр QPel формата                    : Нет
Параметр GMC формата                     : Без точки перехода
Параметр матрицы формата                 : Выборочная
Идентификатор кодека                     : XVID
Идентификатор кодека/Подсказка           : XviD
Продолжительность                        : 1 ч. 31 м.
Битрейт                                  : 1002 Кбит/сек
Ширина                                   : 624 пикселя
Высота                                   : 336 пикселей
Соотношение сторон                       : 1,85:1
Частота кадров                           : 23,976 кадра/сек
Цветовое пространство                    : YUV
Субдискретизация насыщенности            : 4:2:0
Битовая глубина                          : 8 бит
Тип развёртки                            : Прогрессивная
Метод сжатия                             : С потерями
Бит/(Пиксели*Кадры)                      : 0.199
Размер потока                            : 657 Мбайт (88%)
Библиотека кодирования                   : XviD 73
Аудио
Идентификатор                            : 1
Формат                                   : MPEG Audio
Версия формата                           : Version 1
Профиль формата                          : Layer 3
Идентификатор кодека                     : 55
Идентификатор кодека/Подсказка           : MP3
Продолжительность                        : 1 ч. 31 м.
Вид битрейта                             : Постоянный
Битрейт                                  : 128 Кбит/сек
Каналы                                   : 2 канала
Частота                                  : 48,0 КГц
Метод сжатия                             : С потерями
Размер потока                            : 84,0 Мбайт (11%)
Выравнивание                             : Соединение по промежуткам
Продолжительность промежутка             : 42  мс. (1,00 видеокадр)
Время предзагрузки промежутка            : 504  мс.
Библиотека кодирования                   : LAME3.99r
Настройки программы                      : -m s -V 4 -q 2 -lowpass 17 -b 128
Сравнение">

Скриншоты Сравнение


Сравнение с этим + В конкурирующем релизе Режим смешивания: Сжатый битовый поток
--
[Профиль] [ЛС]

Создавать темы 06-Авг-2015 23:19 (спустя 11 месяцев 26 дней)

Топик был перенесен из форума Фильмы до 2014 года в форум Фильмы до 2012 года
sergej644
 
Кто просматривает тему:

Форум Тема Автор Размер
Фильмы 2011 года Очень британский секс-скандал / Британский скандал вокруг секса / A Very British Sex Scandal (Патрик Римс / Patrick Reams) [2007, Великобритания, драма, криминал, DVDRip] VO + Sub Rus painkiller 720 MB
Разная литература Пошаговое руководство по созданию ножа в шведском (скандинавском) стиле [2010, PDF, RUS] Garik014 2 MB
Зарубежные сериалы Скандал / Scandal [S01-05] (2012-2016) WEB-DLRip | Fox Life Russian Mafia 43.14 GB
Зарубежные сериалы Скандал / Scandal [S04] (2014-2015) WEB-DLRip от CasStudio | P | Fox Life достали все 15.25 GB
Фильмы 2011 года Скандальный дневник / Notes on a Scandal (Ричард Айр / Richard Eyre) [2006 г., Великобритания, триллер, драма, BDRip-AVC] 2xMVO (R5, ORT) + DVO + Ukr + Original Eng + Sub (Rus, Ukr, Eng) TorrentFilm 3.86 GB
Фильмы 2011 года Скандальный дневник / Notes on a Scandal (Ричард Айр / Richard Eyre) [2006, Великобритания, триллер, драма, BDRip] MVO (1 канал) + MVO + Original Eng painkiller 2.18 GB
Фильмы 2011 года Скандальный дневник / Notes on a Scandal (Ричард Айр / Richard Eyre) [2006, Великобритания, триллер, драма, BDRip] MVO (R5) + Original (eng) + Sub (rus, eng) painkiller 1.74 GB
Фильмы 2011 года Скандальный дневник / Notes on a Scandal (Ричард Эйр / Richard Eyre) [2006, Великобритания, триллер, драма, HDRip] MVO TorrentFilm 744 MB
Показать сообщения:    

Текущее время: Сегодня 03:10

Часовой пояс: GMT



Вы не можете начинать темы
Вы не можете отвечать на сообщения
Вы не можете редактировать свои сообщения
Вы не можете удалять свои сообщения
Вы не можете голосовать в опросах
Вы не можете прикреплять файлы к сообщениям
Вы не можете скачивать файлы