Скамейка запасных / The Benchwarmers (Деннис Дуган / Dennis Dugan) [2006, США, комедия, спорт, BDRip] MVO

 
Автор Сообщение

TorrentFilm ®

Пол:

Стаж: 2 года

Сообщений: 7741



Награды: Нет

Торрент-статистика

Создавать темы 06-Янв-2016 00:12

[Цитировать]

Скамейка запасных / The Benchwarmers- Год выпуска: 2006
Страна: США
Жанр: комедия, спорт
Продолжительность: 01:25:10
Перевод: Профессиональный (многоголосый, закадровый) DVD
Субтитры: нет-Режиссер: Деннис Дуган / Dennis Dugan
В ролях: Роб Шнайдер, Дэвид Спейд, Джон Хидер, Джон Ловиц, Крэйг Килборн, Молли Симс, Тим Медоуз, Ник Свардсон, Эринн Бартлетт, Амори Ноласко, Терри Крюс, Патрик Шварценеггер
О фильме: У Гаса, Ричи и Кларка большие проблемы с балансом желаний и возможностей. Они упертые фанаты бейсбола и мечтают играть сами, однако злая судьба наделила их такой фантастической неуклюжестью и косорукостью, что спортивная карьера для них кажется абсолютно невозможной. Впрочем, если Бог не дал им таланта, это не значит, что он обделил их упорством, смекалкой и толикой везения.
И вот друзья организовывают собственную команду, дабы попробовать пробиться хотя бы в Малую лигу. Это их единственный шанс выбраться со скамейки запасных — и как бы цели героев не расходились с их талантами, парни не намерены его упускать! Что ж, раз в сто лет и палка стреляет, а записные неудачники получают шанс посрамить профи, пожалуй, все же чаще. И, кажется, такой момент как раз наступил!..-Релиз:
Автор: yaroslaigor
Качество: BDRip (источник: irrlicht / BD-Remux / 1080p)
Формат: AVI
Видео: 704x384 (1.83:1), 23.976 fps, XviD build 65 ~2049 kbps avg, 0.32 bit/pixel
Аудио: 48 kHz, AC3 Dolby Digital, 3/2 (L,C,R,l,r) + LFE ch, ~384.00 kbps avg
Размер: 1488.39 Mb (1/3 DVD)
Скачать: Семпл-

Кадры из фильма


-

Mi

Формат : AVI
Формат/Информация : Audio Video Interleave
Размер файла : 1,45 Гбайт
Продолжительность : 1 ч. 25 м.
Общий поток : 2443 Кбит/сек
Название фильма : Скамейка запасных / The Benchwarmers (2006) BDRip
Режиссёр : yaroslaigor
Жанр : комедия, спорт
Программа кодирования : VirtualDubMod 1.5.10.2 (build 2542/release)
Правообладатель : HQCLUB
Примечание : 02.12.2015
Видео
Идентификатор : 0
Формат : MPEG-4 Visual
Профиль формата : Advanced Simple@L5
Параметр BVOP формата : 1
Параметр QPel формата : Нет
Параметр GMC формата : Без точки перехода
Параметр матрицы формата : Выборочная
Идентификатор кодека : XVID
Идентификатор кодека/Подсказка : XviD
Продолжительность : 1 ч. 25 м.
Битрейт : 2050 Кбит/сек
Ширина : 704 пикселя
Высота : 384 пикселя
Соотношение сторон : 1,85:1
Частота кадров : 23,976 кадра/сек
Цветовое пространство : YUV
Субдискретизация насыщенности : 4:2:0
Битовая глубина : 8 бит
Тип развёртки : Прогрессивная
Метод сжатия : С потерями
Бит/(Пиксели*Кадры) : 0.316
Размер потока : 1,22 Гбайт (84%)
Библиотека кодирования : XviD 65
Аудио
Идентификатор : 1
Формат : AC-3
Формат/Информация : Audio Coding 3
Расширение режима : CM (complete main)
Параметр Endianness формата : Big
Идентификатор кодека : 2000
Продолжительность : 1 ч. 25 м.
Вид битрейта : Постоянный
Битрейт : 384 Кбит/сек
Каналы : 6 каналов
Расположение каналов : Front: L C R, Side: L R, LFE
Частота : 48,0 КГц
Битовая глубина : 16 бит
Метод сжатия : С потерями
Размер потока : 234 Мбайт (16%)
Выравнивание : Разделение по промежуткам
Продолжительность промежутка : 42 мс. (1,00 видеокадр)
Время предзагрузки промежутка : 500 мс.
-
[Профиль] [ЛС]
Показать сообщения:    

Текущее время: Сегодня 23:30

Часовой пояс: GMT



Вы не можете начинать темы
Вы не можете отвечать на сообщения
Вы не можете редактировать свои сообщения
Вы не можете удалять свои сообщения
Вы не можете голосовать в опросах
Вы не можете прикреплять файлы к сообщениям
Вы не можете скачивать файлы